August

Size 729.929 MB   0 seeders     Added 2011-12-25 04:14:10

Stream torrent
Starting‥ You need BitLord! Get it from 1BitLord.com
To download or stream you need BitLord. Visit them at BitLord.com
Looking for fast download speeds come join http://dream-torrents.com for all the latest releases, with friendly staff online radio and games and much much more.\r\n-\r\n-\r\n.http://imdb.com/title/tt1753460/\r\n\r\nAugust tells the story of two former lovers, Troy and Jonathan, who reunite after a long ago painful breakup.\r\nAfter spending several years in Spain, Troy returns to Los Angeles and decides to phone Jonathan and meet for coffee. A seemingly innocent rendezvous turns into an attempt to revive passions past.\r\nOnly this time it's not that simple as Jonathan has a new beau, Raul, and is trying to make the right decision a second time around. \r\n\r\nGeneral\r\nComplete name : August.2011.DVDRip.Xvid-QaFoNE.avi\r\nFormat : AVI\r\nFormat/Info : Audio Video Interleave\r\nFile size : 696 MiB\r\nDuration : 1h 34mn\r\nOverall bit rate : 1 028 Kbps\r\n\r\nVideo\r\nID : 0\r\nFormat : MPEG-4 Visual\r\nFormat profile : Advanced Simple@L5\r\nFormat settings, BVOP : Yes\r\nFormat settings, QPel : No\r\nFormat settings, GMC : No warppoints\r\nFormat settings, Matrix : Default (H.263)\r\nMuxing mode : Packed bitstream\r\nCodec ID : XVID\r\nCodec ID/Hint : XviD\r\nDuration : 1h 34mn\r\nBit rate : 905 Kbps\r\nWidth : 640 pixels\r\nHeight : 272 pixels\r\nDisplay aspect ratio : 2.35:1\r\nFrame rate : 25.000 fps\r\nColor space : YUV\r\nChroma subsampling : 4:2:0\r\nBit depth : 8 bits\r\nScan type : Progressive\r\nCompression mode : Lossy\r\nBits/(Pixel*Frame) : 0.208\r\nStream size : 613 MiB (88%)\r\nWriting library : XviD 64\r\n\r\nAudio\r\nID : 1\r\nFormat : MPEG Audio\r\nFormat version : Version 1\r\nFormat profile : Layer 3\r\nMode : Joint stereo\r\nMode extension : MS Stereo\r\nCodec ID : 55\r\nCodec ID/Hint : MP3\r\nDuration : 1h 34mn\r\nBit rate mode : Variable\r\nBit rate : 110 Kbps\r\nNominal bit rate : 128 Kbps\r\nChannel(s) : 2 channels\r\nSampling rate : 48.0 KHz\r\nCompression mode : Lossy\r\nStream size : 74.4 MiB (11%)\r\nAlignment : Aligned on interleaves\r\nInterleave, duration : 24 ms (0.60 video frame)\r\nInterleave, preload duration : 76 ms\r\nTitle : VTS_03_1 T81 2_0ch 192Kbps DELAY 0ms\r\nWriting library : LAME3.98r\r\nEncoding settings : -m j -V 4 -q 2 -lowpass 17 --abr 128
August.2011.DVDRip.Xvid-QaFoNE.avi 729.929 MB
Gathering some info...

Register and log in Isohunt and see no captcha anymore!

4000 symbols left
Hash 2A248F9D3DD75F08398B3242BD675FF4D677432B

Related torrents for "August"

Torrent search:

2011