Mission.Impossible.Ghost.Protocol.2011.DVDRip.XviD-SiNC

Size 756.487 MB   0 seeders     Added 2011-12-26 01:07:27

To download or stream you need BitLord. Visit them at BitLord.com
SiNC


presents


Mission: Impossible - Ghost Protocol (2011)


http://www.imdb.com/title/tt1229238/

Genre: Action/Adventure/Thriller 

Language: English

Plot: The IMF is shut down when it\'s implicated in the bombing of the Kremlin, causing Ethan Hunt and his new team to go rogue to clear their organization\'s name.

Infomation:
Format : AVI
Format/Info : Audio Video Interleave
Format profile : OpenDML
File size : 721 MiB
Duration : 2h 13mn
Overall bit rate : 1 602 Kbps
Writing application : MEncoder SVN-r33823-4.1.2
Writing library : MPlayer
 
Video
ID : 0
Format : xvid
Codec ID : xvid
Duration : 2h 13mn
Bit rate : 1 475 Kbps
Width : 842 pixels
Height : 352 pixels
Display aspect ratio : 16:9
Frame rate : 23.976 fps
Bits/(Pixel*Frame) : 0.273
Stream size : 663 MiB (92%)
 
Audio
ID : 1
Format : MPEG Audio
Codec ID : 55
Codec ID/Hint : MP3
Duration : 2h 13mn
Bit rate : 112 Kbps
Channel(s) : 2 channels
Sampling rate : 48.0 KHz
Compression mode : Lossy
Stream size : 1.79 MiB (0%)
Alignment : Aligned on interleaves
Interleave, duration : 1605 ms (38.47 video frames)
Interleave, preload duration : 125 ms
 

Notes:
A huge thanks to our suppliers who made this early DVD release possible!


DVD quality - see screenshots below:
http://imgur.com/RfOfr
http://imgur.com/orVBw
http://imgur.com/4MIAS


Sample:
http://alturl.com/rknwv
Mission.Impossible.Ghost.Protocol.2011.DVDRip.XviD-SiNC/Mission.Impossible.Ghost.Protocol.2011.DVDRip.XviD-SiNC.part07.rar 64 MB
Mission.Impossible.Ghost.Protocol.2011.DVDRip.XviD-SiNC/Mission.Impossible.Ghost.Protocol.2011.DVDRip.XviD-SiNC.part02.rar 64 MB
Mission.Impossible.Ghost.Protocol.2011.DVDRip.XviD-SiNC/Mission.Impossible.Ghost.Protocol.2011.DVDRip.XviD-SiNC.part03.rar 64 MB
Gathering some info...

Register and log in Isohunt and see no captcha anymore!

4000 symbols left
Hash ee6b71b8675829949e3988393bd478db0131ade0