imdb
rating

7.2
War Horse

War Horse (2011)

Drama, War

Full description
quality   dvdrip screener telesync bd

War Horse (2011) DVDRip XviD.AC3 - ANARCHX

Size 758.434 MB   0 seeders     Added 2011-12-26 04:15:36

Stream torrent
Starting‥ You need BitLord! Get it from BitLord.com
10
To download or stream you need BitLord. Visit them at BitLord.com
IMDb: http://www.imdb.com/title/tt1568911/ ------------------------------------------- War Horse (2011) DVDRip_XviD.AC3 - ANARCHX ------------------------------------------ Sample............: Yes Sample Size.......: 29.3 MiB ---------------------------- Details: ------- Video ID : 0 Format : MPEG-4 Visual Format profile : AdvancedSimple@L5 Format settings, BVOP : Yes Format settings, QPel : No Format settings, GMC : No warppoints Format settings, Matrix : Custom Codec ID : XVID Codec ID/Hint : XviD Duration : 2h 26mn Bit rate : 1 631 Kbps Width : 720 pixels Height : 304 pixels Display aspect ratio : 2.35:1 Frame rate : 23.976 fps Resolution : 24 bits Colorimetry : 4:2:0 Scan type : Progressive Bits/(Pixel*Frame) : 0.311 Stream size : 692 MiB (99%) Writing library : XviD 58 Audio ID : 1 Format : AC-3 Format/Info : Audio Coding 3 Codec ID : 2000 Duration : 2h 26mn Bit rate mode : Constant Bit rate : 384 Kbps Channel(s) : 6 channels Channel positions : Front: L C R, Surround: L R, LFE Sampling rate : 48.0 KHz Stream size : 293 MiB (19%) Alignment : Aligned on interleaves Interleave, duration : 64 ms (1.54 video frames) Interleave, preload duration : 192 ms ----------------------------------------- Plot: ---- Young Albert enlists to service in WWI after his beloved horse, Joey, is sold to the cavalry. Albert's hopeful journey takes him out of England and across Europe as the war rages on. Screenshots: ----------- image/ image/ image/ image/ image/ image/ image/ image/ image/ image/ ----------------------------------------------------
1.jpg 24.475 KB
2.jpg 39.869 KB
3.jpg 24.861 KB
Gathering some info...

Register and log in Isohunt and see no captcha anymore!

4000 symbols left
Hash 4FF3C9C1F303DA572F1536A884061D605EA7EA65

Related torrents for "War Horse (2011) DVDRip XviD.AC3 - ANARCHX"

Torrent search:

dvdrip 2011