imdb
rating

6.5
Killer Elite

Killer Elite (2011)

Action, Adventure, Thriller

Full description

Killer Elite [2011] [ENG] [BRRip] XviD AC3 - {RedDragon}

Size 733.136 MB   14 seeders     Added 2011-12-26 19:40:32

Stream torrent
Starting‥ You need BitLord! Get it from BitLord.com
7.5
To download or stream you need BitLord. Visit them at BitLord.com
[b]º   Poster    º
 
 [img]image[/img]
 
 
 º   General.    º
 

Complete name          : Killer Elite [2011].[ENG].[BRRip].XviD.AC3 -{RedDragon}.avi
Format                 : MPEG-4
Format profile         : Base Media / Version 2
Codec ID               : mp42
File size              : 699 MiB
Duration               : 1h 56mn
Overall bit rate       : 838 Kbps
Encoded date           : UTC 2011-12-26 07:42:04
Tagged date            : UTC 2011-12-26 07:48:31
Language               : English
IMDb                   : http://www.imdb.com/title/tt1448755/
IMDb Rating            : 6.6/10

 
 º    Video.     º


ID                               : 1
Format                           : MPEG-4 Visual
Format profile                   : Simple@L1
Format settings, BVOP            : No
Format settings, QPel            : No
Format settings, GMC             : No warppoints
Format settings, Matrix          : Default (H.263)
Codec ID                         : 20
Duration                         : 1h 56mn
Bit rate mode                    : Variable
Bit rate                         : 675 Kbps
Maximum bit rate                 : 1 596 Kbps
Width                            : 720 pixels
Height                           : 246 pixels
Display aspect ratio             : 2.927
Frame rate mode                  : Constant
Frame rate                       : 29.970 fps
Color space                      : YUV
Chroma subsampling               : 4:2:0
Bit depth                        : 8 bits
Scan type                        : Progressive
Bits/(Pixel*Frame)               : 0.127
Stream size                      : 563 MiB (81%)
Writing library                  : Lavc52.94.3
Encoded date                     : UTC 2011-12-26 07:42:04
Tagged date                      : UTC 2011-12-26 07:48:31


 º    Audio.     º
 

ID                               : 2
Format                           : AAC
Format/Info                      : Advanced Audio Codec
Format version                   : Version 4
Format profile                   : LC
Format settings, SBR             : No
Codec ID                         : 40
Duration                         : 1h 56mn
Bit rate mode                    : Variable
Bit rate                         : 160 Kbps
Maximum bit rate                 : 239 Kbps
Channel(s)                       : 2 channels
Channel positions                : Front: L R
Sampling rate                    : 48.0 KHz
Stream size                      : 134 MiB (19%)
Encoded date                     : UTC 2011-12-26 07:42:04
Tagged date                      : UTC 2011-12-26 07:48:31[/b]
Killer Elite [2011] [ENG] [BRRip] XviD AC3 -{RedDragon}/Killer Elite [2011].[ENG].[BRRip].XviD.AC3 -{RedDragon}.avi 733.129 MB
Killer Elite [2011] [ENG] [BRRip] XviD AC3 -{RedDragon}/READ ME FIRST..!!!.txt 449 B
Killer Elite [2011] [ENG] [BRRip] XviD AC3 -{RedDragon}/RedDragon .nfo 6.713 KB
Gathering some info...

Register and log in Isohunt and see no captcha anymore!

4000 symbols left
Hash d51d88ac78e2a32ba4dad5bf6a8b596759353850

Related torrents for "Killer Elite [2011] [ENG] [BRRip] XviD AC3 - {RedDragon}"

Torrent search:

english bd 2011