imdb
rating

6.0
New Kids Nitro

New Kids Nitro (2011)

Action, Comedy

Full description

New.Kids.NITRO.BRrip.torrent

Size 801.251 MB   0 seeders     Added 2011-12-27 04:16:44

Stream torrent
Starting‥ You need BitLord! Get it from BitLord.com
To download or stream you need BitLord. Visit them at BitLord.com
New Kids Nitro (2011)\r\n\r\nhttp://www.imdb.com/title/tt2043932/\r\n6.7/10\r\n\r\nGerrie, Richard, Rikkert, Robbie and Barry from \"Maaskantje\" are in a big fight with the village of \"Schijndel\". When a zombie kills someone from \"Brabant\", things get out of hand. \r\n\r\nDirected by: Flip Van der Kuil & Steffen Haars\r\nRelease Date: 07 December 2011\r\nCountry: Netherlands (2011)\r\nWebsite: Official website\r\nOriginal language : Dutch\r\n\r\n\r\nGeneral\r\n\r\nFormat                           : AVI\r\nFormat/Info                      : Audio Video Interleave\r\nFile size                        : 700 MB\r\nDuration                         : 1h 29mn\r\nOverall bit rate                 : 1 904 Kbps\r\n\r\nVideo\r\nID                               : 0\r\nFormat                           : MPEG-4 Visual\r\nFormat profile                   : Advanced Simple@L5\r\nFormat settings, BVOP            : Yes\r\nFormat settings, QPel            : No\r\nFormat settings, GMC             : No warppoints\r\nFormat settings, Matrix          : Default (H.263)\r\nMuxing mode                      : Packed bitstream\r\nCodec ID                         : XVID\r\nCodec ID/Hint                    : XviD\r\nDuration                         : 1h 29mn\r\nBit rate                         : 1 512 Kbps\r\nWidth                            : 720 pixels\r\nHeight                           : 304 pixels\r\nDisplay aspect ratio             : 2.35:1\r\nFrame rate                       : 23.976 fps\r\nResolution                       : 8 bits\r\nColorimetry                      : 4:2:0\r\nScan type                        : Progressive\r\nBits/(Pixel*Frame)               : 0.288\r\nStream size                      : 973 MiB (79%)\r\nWriting library                  : XviD 64\r\n\r\nAudio\r\nID                               : 1\r\nFormat                           : AC-3\r\nFormat/Info                      : Audio Coding 3\r\nFormat_Settings_ModeExtension    : CM (complete main)\r\nCodec ID                         : 2000\r\nDuration                         : 1h 29mn\r\nBit rate mode                    : Constant\r\nBit rate                         : 384 Kbps\r\nChannel(s)                       : 6 channels\r\nChannel positions                : Front: L C R, Side: L R, LFE\r\nSampling rate                    : 48.0 KHz\r\nStream size                      : 247 MiB (20%)\r\nAlignment                        : Aligned on interleaves\r\nInterleave, duration             : 64 ms (1.53 video frames)\r\nInterleave, preload duration     : 192 ms\r\nTitle                            : 6ch English
New.Kids.NITRO.BRrip notes.txt 199 B
New.Kids.NITRO.BRrip.nfo 199 B
New.Kids.NITRO.BRrip.notes.txt 199 B
Gathering some info...

Register and log in Isohunt and see no captcha anymore!

4000 symbols left
Hash 15278AD8A2636A0DD6D50EEA72487BCDF374EC24

Related torrents for "New.Kids.NITRO.BRrip.torrent"

Torrent search:

bd