imdb
rating

6.5
Ice Age: A Mammoth Christmas

Ice Age: A Mammoth Christmas (2011)

Animation, Family, TV Movie

Full description
quality   dvdrip x264 hdtv hd bd fullhd

Ice Age -A Mammoth Christmas[2011][Eng][DvDRip]XviD - RedDragon

Size 428.412 MB   0 seeders     Added 2011-12-28 04:18:24

Stream torrent
Starting‥ You need BitLord! Get it from BitLord.com
To download or stream you need BitLord. Visit them at BitLord.com
[b][IMG]image[/IMG]\r\n \r\n[img]image[/img]\r\n\r\n\r\n[IMG]image[/IMG]\r\n\r\nWhen Sid accidentally destroys Manny's heirloom Christmas rock and ends up on Santa's \r\nnaughty list, he leads a hilarious quest to the North Pole to make things right and \r\nends up making things much worse. Now it's up to Manny and his prehistoric posse to \r\nband together and save Christmas for the entire world.  Written by realndn06  \r\n\r\n\r\n[IMG]image[/IMG]\r\n\r\nGeneral\r\nComplete name          : Ice.Age.A.Mammoth.Christmas[2011][Eng][DvDRip]XviD-{RedDragon}\r\nFormat                 : MPEG-4\r\nFormat profile         : Base Media / Version 2\r\nCodec ID               : mp42\r\nFile size              : 409 MiB\r\nDuration               : 25mn 29s\r\nOverall bit rate       : 2 240 Kbps\r\nEncoded date           : UTC 2011-12-27 04:23:08\r\nTagged date            : UTC 2011-12-27 04:24:52\r\nLanguage               : English\r\nIMDb                   : http://www.imdb.com/title/tt2100546/\r\nIMDb Rating            : 6.5/10\r\n\r\n\r\n[IMG]image[/IMG]\r\n\r\n\r\nID                               : 1\r\nFormat                           : MPEG-4 Visual\r\nFormat profile                   : Simple@L1\r\nFormat settings, BVOP            : No\r\nFormat settings, QPel            : No\r\nFormat settings, GMC             : No warppoints\r\nFormat settings, Matrix          : Default (H.263)\r\nCodec ID                         : 20\r\nDuration                         : 25mn 29s\r\nBit rate mode                    : Variable\r\nBit rate                         : 2 077 Kbps\r\nMaximum bit rate                 : 7 522 Kbps\r\nWidth                            : 640 pixels\r\nHeight                           : 352 pixels\r\nDisplay aspect ratio             : 16:9\r\nFrame rate mode                  : Variable\r\nFrame rate                       : 23.976 fps\r\nMinimum frame rate               : 23.974 fps\r\nMaximum frame rate               : 23.981 fps\r\nColor space                      : YUV\r\nChroma subsampling               : 4:2:0\r\nBit depth                        : 8 bits\r\nScan type                        : Progressive\r\nBits/(Pixel*Frame)               : 0.385\r\nStream size                      : 379 MiB (93%)\r\nWriting library                  : Lavc52.94.3\r\nEncoded date                     : UTC 2011-12-27 04:23:08\r\nTagged date                      : UTC 2011-12-27 04:24:52\r\n\r\n\r\n[IMG]image[/IMG]\r\n\r\n\r\nID                               : 2\r\nFormat                           : AAC\r\nFormat/Info                      : Advanced Audio Codec\r\nFormat version                   : Version 4\r\nFormat profile                   : LC\r\nFormat settings, SBR             : No\r\nCodec ID                         : 40\r\nDuration                         : 25mn 29s\r\nBit rate mode                    : Variable\r\nBit rate                         : 160 Kbps\r\nMaximum bit rate                 : 287 Kbps\r\nChannel(s)                       : 2 channels\r\nChannel positions                : Front: L R\r\nSampling rate                    : 48.0 KHz\r\nStream size                      : 29.2 MiB (7%)\r\nEncoded date                     : UTC 2011-12-27 04:23:08\r\nTagged date                      : UTC 2011-12-27 04:24:52\r\n\r\n\r\n[IMG]image[/IMG]\r\n\r\n\r\nRay Romano   	           ...  Manny (voice)\r\nJohn Leguizamo 	 	       ... 	Sid (voice)\r\nDenis Leary 	 	       ... 	Diego (voice)\r\nQueen Latifah 	 	       ... 	Ellie (voice)\r\nSeann William Scott 	   ... 	Crash (voice)\r\nJosh Peck 	 	           ... 	Eddie (voice)\r\nCiara Bravo 	 	       ... 	Peaches (voice)\r\nT.J. Miller 	 	       ... 	Prancer (voice)\r\nJudah Friedlander 	       ... 	Santa Clause (voice)\r\nBilly Gardell 	 	       ... 	Santa (voice)\r\nJordan Friedlander 	       ... 	Head Dune Sloth (voice)\r\nKaren Disher 		       ... 	Scratte (voice)\r\nCindy Slattery 	 	       ... 	Miscellaneous Animals (voice)\r\nChris Wedge 	 	       ... 	Scrat (voice) [/b]\r\n\r\n\r\n[IMG]image[/IMG]\r\n\r\n[img]image[/img]\r\n\r\n[IMG]image[/IMG]
Ice.Age.A.Mammoth.Christmas[2011][Eng][DvDRip]XviD-{RedDragon} .avi 428.402 MB
RedDragon .nfo 6.806 KB
RedDragon.txt 2.254 KB
Gathering some info...

Register and log in Isohunt and see no captcha anymore!

4000 symbols left
Hash 5D64F78B6F2B5DEA650D6EF7EF3114CA41BA17A2

Related torrents for "Ice Age -A Mammoth Christmas[2011][Eng][DvDRip]XviD - RedDragon"

Torrent search:

dvdrip english 2011