imdb
rating

7.5
Sherlock Holmes: A Game of Shadows

Sherlock Holmes: A Game of Shadows (2011)

Action, Adventure, Crime, Mystery

Full description

Sherlock Holmes 2011 A Game Of Shadows TS x264 RomanianSubtitle

Size 735.525 MB   0 seeders     Added 2011-12-29 03:58:46

Stream torrent
Starting‥ You need BitLord! Get it from 1BitLord.com
To download or stream you need BitLord. Visit them at BitLord.com
image

Format :MPEG-4                                                                                                             Format profile :Base Media / Version 2                                                                           Codec ID :mp42                                                                                                                     File size :701 MiB                                                                                                       Duration :1h 59mn                                                                                                               Overall bit rate mode :Variable                                                                                       Overall bit rate :820 KbpsVideo                                                                                             ID :1                                                                                                                                 Format :AVC                                                                                                           Format/Info :Advanced Video Codec                                                                               Format profile :High@L2.1                                                                                               Format settings, CABAC :Yes                                                                                     Format settings, ReFrames :4 frames                                                                           Codec ID :avc1                                                                                                                 Codec ID/Info :Advanced Video Coding                                                                                 Duration :1h 59mn                                                                                                               Bit rate mode :Variable                                                                                                       Bit  rate :655 Kbps                                                                                                           Width :680 pixels                                                                                                             Height :282 pixels                                                                                                                 Display aspect ratio :2.40:1                                                                                             Frame rate mode :Constant                                                                                             Frame rate :25.000 fps                                                                                                   Color space :YUV                                                                                                                 Chroma subsampling :4:2:0                                                                                               Bit depth :8 bits                                                                                                                 Scan type :Progressive                                                                               Bits/(Pixel*Frame) :0.137                                                                                           Stream size :561 MiB (80%)                                                                                                       Writing lib    rary :x264 core 112Audio                                                                                 ID :2Format :AAC                                                                                                         Format/Info :Advanced Audio Codec                                                                                 Format profile :LC                                                                                                         Codec ID :40                                                                                                               Duration :1h 59mn                                                                                                               Bit rate mode :Variable                                                                                                         Bit rate :160 Kbps                                                                                                               Maximum bit rate :204 Kbps                                                                                         Channel(s) :2 channels                                                                                                     Channel positions :Front: L R                                                                                       Sampling rate :48.0 KHz                                                                                               Compression mode :Lossy                                                                                             Stream size :137 MiB (20%)                                                                                               Language :English                                                                                                                      Subtitle : Romanian 
                                                                                                                Sherlock Holmes 2011 A Game Of Shadows 
                                                                                  Sherlock Holmes and his sidekick Dr. Watson join forces to outwit andbring down their fiercest adversary, Professor Moriarty.
Sherlock Holmes 2011 A Game Of Shadows TS x264-RomanianSubtitle/Sherlock Holmes 2 A Game Of Shadows (2011) TS x264-Danutz.mp4 735.435 MB
Sherlock Holmes 2011 A Game Of Shadows TS x264-RomanianSubtitle/Sherlock Holmes 2 A Game Of Shadows (2011) TS x264-Danutz.srt 90.695 KB
Gathering some info...

Register and log in Isohunt and see no captcha anymore!

4000 symbols left
Hash 4eff4fbba5d0e0ce1412f2f0ede56126f398cb89

Related torrents for "Sherlock Holmes 2011 A Game Of Shadows TS x264 RomanianSubtitle"

Torrent search:

telesync x264 2011