imdb
rating

7.5
Sherlock Holmes: A Game of Shadows

Sherlock Holmes: A Game of Shadows (2011)

Action, Adventure, Crime, Mystery

Full description

Sherlock Holmes 2 A Game Of Shadows 2011TS x264-RomanianSubtitle

Size 735.525 MB   0 seeders     Added 2011-12-29 04:19:46

Stream torrent
Starting‥ You need BitLord! Get it from 1BitLord.com
To download or stream you need BitLord. Visit them at BitLord.com
Presents...\r\n\r\nSherlock Holmes 2 :A Game Of Shadows (2011) TS x264\r\n\r\nimage\r\n\r\nFormat :MPEG-4\r\n\r\nFormat profile :Base Media / Version 2\r\n\r\nCodec ID :mp42\r\n\r\nFile size :701 MiB\r\n\r\nDuration :1h 59mn\r\n\r\nOverall bit rate mode :Variable\r\n\r\nOverall bit rate :820 Kbps\r\n\r\nVideo\r\n\r\nID :1\r\n\r\nFormat :AVC\r\n\r\nFormat/Info :Advanced Video Codec\r\n\r\nFormat profile :High@L2.1\r\n\r\nFormat settings, CABAC :Yes\r\n\r\nFormat settings, ReFrames :4 frames\r\n\r\nCodec ID :avc1\r\n\r\nCodec ID/Info :Advanced Video Coding\r\n\r\nDuration :1h 59mn\r\n\r\nBit rate mode :Variable\r\n\r\nBit rate :655 Kbps\r\n\r\nWidth :680 pixels\r\n\r\nHeight :282 pixels\r\n\r\nDisplay aspect ratio :2.40:1\r\n\r\nFrame rate mode :Constant\r\n\r\nFrame rate :25.000 fps\r\n\r\nColor space :YUV\r\n\r\nChroma subsampling :4:2:0\r\n\r\nBit depth :8 bits\r\n\r\nScan type :Progressive\r\n\r\nBits/(Pixel*Frame) :0.137\r\n\r\nStream size :561 MiB (80%)\r\n\r\nWriting library :x264 core 112\r\n\r\nAudio\r\n\r\nID :2\r\n\r\nFormat :AAC\r\n\r\nFormat/Info :Advanced Audio Codec\r\n\r\nFormat profile :LC\r\n\r\nCodec ID :40\r\n\r\nDuration :1h 59mn\r\n\r\nBit rate mode :Variable\r\n\r\nBit rate :160 Kbps\r\n\r\nMaximum bit rate :204 Kbps\r\n\r\nChannel(s) :2 channels\r\n\r\nChannel positions :Front: L R\r\n\r\nSampling rate :48.0 KHz\r\n\r\nCompression mode :Lossy\r\n\r\nStream size :137 MiB (20%)\r\n\r\nLanguage :English\r\n\r\nSherlock Holmes :A Game of Shadows (2011)\r\n\r\nSherlock Holmes and his sidekick Dr. Watson join forces to outwit and\r\n\r\nbring down their fiercest adversary, Professor Moriarty.\r\n\r\nRatings :7.8/10 from 13,352 Votes\r\n\r\nhttp://www.imdb.com/title/tt1515091/\r\n\r\nSource :UnKnOwN (Thanks!)
Sherlock Holmes 2 A Game Of Shadows (2011) TS x264-Danutz.mp4 735.435 MB
Sherlock Holmes 2 A Game Of Shadows (2011) TS x264-Danutz.srt 90.695 KB
Gathering some info...

Register and log in Isohunt and see no captcha anymore!

4000 symbols left
Hash 593AFBC402BAEBE6CC2237AED7F18D61FACA2D1A

Related torrents for "Sherlock Holmes 2 A Game Of Shadows 2011TS x264-RomanianSubtitle"

Torrent search:

x264 2011