Rise_of_the_Planet_of_the_Apes_(2011)_DVDRip_XviD-MAX

Size 17.116 KB   0 seeders     Added 2011-12-29 09:25:38

To download or stream you need BitLord. Visit them at BitLord.com
 image

Screens:
 
image
 
image
 
image
 
image

Alternative:
 
image
 
image
 
image
 
image

ScreenCaps:
 
image

Rise of the Planet of the Apes (2011) DVDRip XviD-MAX
Format                           : AVI
Format/Info                      : Audio Video Interleave
Format profile                   : OpenDML
File size                        : 1.55 GiB
Duration                         : 1h 44mn
Overall bit rate                 : 2 121 Kbps
Writing application              : VirtualDubMod 1.5.10.2 (build 2542/release)
Writing library                  : VirtualDubMod build 2542/release
Original source form             : MAX TORRENTZ
Copyright                        : SIGISMUNT

Video
ID                               : 0
Format                           : MPEG-4 Visual
Format profile                   : AdvancedSimple@L5
Format settings, BVOP            : Yes
Format settings, QPel            : No
Format settings, GMC             : No warppoints
Format settings, Matrix          : Custom
Codec ID                         : XVID
Codec ID/Hint                    : XviD
Duration                         : 1h 44mn
Bit rate                         : 1 732 Kbps
Width                            : 720 pixels
Height                           : 304 pixels
Display aspect ratio             : 2.35:1
Frame rate                       : 23.976 fps
Resolution                       : 24 bits
Colorimetry                      : 4:2:0
Scan type                        : Progressive
Bits/(Pixel*Frame)               : 0.330
Stream size                      : 1.27 GiB (82%)
Writing library                  : XviD 58

Audio
ID                               : 1
Format                           : AC-3
Format/Info                      : Audio Coding 3
Codec ID                         : 2000
Duration                         : 1h 44mn
Bit rate mode                    : Constant
Bit rate                         : 384 Kbps
Channel(s)                       : 6 channels
Channel positions                : Front: L C R, Surround: L R, LFE
Sampling rate                    : 48.0 KHz
Stream size                      : 288 MiB (18%)
Alignment                        : Aligned on interleaves
Interleave, duration             : 64 ms (1.53 video frames)
Interleave, preload duration     : 192 ms

Source: DVD (perfect a/v/sync quality,sample included)
This torrent is not seedbox supported,please seed it to the MAX
 
http://adf.ly/627091/www.imdb.com/title/tt1318514/
Rise_of_the_Planet_of_the_Apes_(2011)_DVDRip_XviD-MAX.6800294.TPB.rar 17.116 KB
Gathering some info...

Register and log in Isohunt and see no captcha anymore!

4000 symbols left
Hash 2318a19541be65fc1273b4f67a66211783f273c2

Related torrents for "Rise_of_the_Planet_of_the_Apes_(2011)_DVDRip_XviD-MAX"

Torrent search:

2011