A Christmas Kiss RMVB 2012 www.everything-center.com

Size 582.772 MB   0 seeders     Added 2011-12-31 02:50:17

To download or stream you need BitLord. Visit them at BitLord.com
General
Complete name                    : A_Christmas_Kiss_A_Christmas_Kiss.rmvb
Format                           : RealMedia
File size                        : 560 MiB
Duration                         : 1h 25mn
Overall bit rate                 : 894 Kbps
Movie name                       : A Christmas Kiss
Release                          : 2012
Genres                           : Romance


Video
ID                               : 1
Format                           : RealVideo 4
Codec ID                         : RV40
Codec ID/Info                    : Based on AVC (H.264), Real Player 9
Duration                         : 1h 25mn
Bit rate                         : 830 Kbps
Width                            : 704 pixels
Height                           : 396 pixels
Display aspect ratio             : 16:9
Frame rate                       : 25.000 fps
Bits/(Pixel*Frame)               : 0.119
Stream size                      : 507 MiB (90%)

Audio
ID                               : 0
Format                           : Cooker
Codec ID                         : cook
Codec ID/Info                    : Based on G.722.1, Real Player 6
Duration                         : 1h 25mn
Bit rate                         : 64.1 Kbps
Channel(s)                       : 2 channels
Sampling rate                    : 44.1 KHz
Bit depth                        : 16 bits
Stream size                      : 39.2 MiB (7%)

more free movies visit :  www.everything-center.com

enjoy !!!
A_Christmas_Kiss2012_A_Christmas_Kiss_2012_RMVB/Christmas_Kiss2012_A_Christmas_Kiss_2012_RMVB.zip 582.772 MB
A_Christmas_Kiss2012_A_Christmas_Kiss_2012_RMVB/Torrent downloaded from Demonoid.me.txt 46 B
A_Christmas_Kiss2012_A_Christmas_Kiss_2012_RMVB/Torrent downloaded from Thepiratebay.org.txt 51 B
Gathering some info...

Register and log in Isohunt and see no captcha anymore!

4000 symbols left
Hash 817be8e70bd6914ac785c8016dae7e8573146673