Battleground (2012) RMVB www.everything-center.com

Size 579.796 MB   0 seeders     Added 2011-12-31 03:34:57

To download or stream you need BitLord. Visit them at BitLord.com
General
Complete name                    : Battleground.2012.DVDRip.XviD_sprinter-battleground-www.everything-center.com.rmvb
Format                           : RealMedia
File size                        : 557 MiB
Duration                         : 1h 25mn
Overall bit rate                 : 891 Kbps
Movie name                       : Battleground (2012)
Release                          : 2012
Genres                           : Action | Horror | Thriller

Video
ID                               : 1
Format                           : RealVideo 4
Codec ID                         : RV40
Codec ID/Info                    : Based on AVC (H.264), Real Player 9
Duration                         : 1h 25mn
Bit rate                         : 826 Kbps
Width                            : 608 pixels
Height                           : 256 pixels
Display aspect ratio             : 2.40:1
Frame rate                       : 25.000 fps
Bits/(Pixel*Frame)               : 0.212
Stream size                      : 505 MiB (91%)

Audio
ID                               : 0
Format                           : Cooker
Codec ID                         : cook
Codec ID/Info                    : Based on G.722.1, Real Player 6
Duration                         : 1h 25mn
Bit rate                         : 64.1 Kbps
Channel(s)                       : 2 channels
Sampling rate                    : 44.1 KHz
Bit depth                        : 16 bits
Stream size                      : 39.2 MiB (7%)

more free movies visit : www.everything-center.com

enjoy !!!
Battleground.2012.DVDRip.RMV_sprinter-battleground.RMV/Battleground.2012.DVDRip.RMV_sprinter-battleground.RMV.rar 579.795 MB
Battleground.2012.DVDRip.RMV_sprinter-battleground.RMV/Torrent downloaded from Thepiratebay.org.txt 51 B
Battleground.2012.DVDRip.RMV_sprinter-battleground.RMV/Torrent downloaded from Demonoid.me.txt 46 B
Gathering some info...

Register and log in Isohunt and see no captcha anymore!

4000 symbols left
Hash 6153d68cc358e1e3abe7adeb6f2d56bab3536fb3