imdb
rating

7.2
The Muppets

The Muppets (2011)

Comedy, Music, Family

Full description

The Muppets ( 2011 ) DVDRip XviD- MAX.torrent

Size 662.663 MB   0 seeders     Added 2011-12-31 14:47:02

Stream torrent
Starting‥ You need BitLord! Get it from BitLord.com
To download or stream you need BitLord. Visit them at BitLord.com
Storyline

When 3 muppet fans learn that Tex Richman wants to drill under the muppet theater for oil Gary, Mary and Walter set out to find the muppets who have been split up for years Kermit lives in his own mansion depressed in hollywood, Gonzo is a high class plumber at Gonzo's Royal Flush, Fozzie performs with a tribute band called The Moopets , Miss Piggy is the plus-size fashion editor at Vogue Paris, and Animal is at a celebrity anger managment rehab center in Santa Barbara.

Format                           : AVI
Format/Info                      : Audio Video Interleave
Format profile                   : OpenDML
Overall bit rate                 : 1 799 Kbps
Writing application              : VirtualDubMod 1.5.10.2 (build 2542/release)
Writing library                  : VirtualDubMod build 2542/release
Original source form             : MAX TORRENTZ
Copyright                        : SIGISMUNT

Video
ID                               : 0
Format                           : MPEG-4 Visual
Format profile                   : AdvancedSimple@L5
Format settings, BVOP            : Yes
Format settings, QPel            : No
Format settings, GMC             : No warppoints
Format settings, Matrix          : Custom
Codec ID                         : XVID
Codec ID/Hint                    : XviD
Bit rate                         : 1 603 Kbps
Width                            : 720 pixels
Height                           : 304 pixels
Display aspect ratio             : 2.35:1
Frame rate                       : 23.976 fps
Resolution                       : 24 bits
Colorimetry                      : 4:2:0
Scan type                        : Progressive
Bits/(Pixel*Frame)               : 0.305
Stream size                      : 1.26 GiB (89%)
Writing library                  : XviD 58

Audio
ID                               : 1
Format                           : MPEG Audio
Format version                   : Version 1
Format profile                   : Layer 3
Codec ID                         : 50
Codec ID/Hint                    : MP1
Bit rate mode                    : Constant
Bit rate                         : 192 Kbps
Channel(s)                       : 2 channels
Sampling rate                    : 48.0 KHz
Resolution                       : 16 bits
Stream size                      : 155 MiB (11%)
Alignment                        : Aligned on interleaves
Interleave, duration             : 493 ms (11.82 video frames)
Interleave, preload duration     : 216 ms




The Muppets ( 2011 ) DVDRip XviD- MAX/att-networks.com.txt 39 B
The Muppets ( 2011 ) DVDRip XviD- MAX/HDSceneRG.txt 103 B
The Muppets ( 2011 ) DVDRip XviD- MAX/sceneunderground.org.txt 77 B
Gathering some info...

Register and log in Isohunt and see no captcha anymore!

4000 symbols left
Hash c065555abd0ba5b6686c80dc5e2d4d24c240392a

Related torrents for "The Muppets ( 2011 ) DVDRip XviD- MAX.torrent"

Torrent search:

dvdrip 2011