imdb
rating

7.6
Robin Hood

Robin Hood (1973)

Animation, Family

Full description
quality   dvdrip x264 dvdr hdtv hd bd

Robin Hood 201 DVDrip English Klam

Size 2.522 GB   3 seeders     Added 2011-12-31 16:41:55

Stream torrent
Starting‥ You need BitLord! Get it from BitLord.com
10
To download or stream you need BitLord. Visit them at BitLord.com
[img] image[/img]

With: Russell Crowe, Cate Blanchett and Mark Strong

Het legendarische verhaal over de ervaren boogschutter Robin Hood, die in dienst treedt bij het leger van koning Richard om tegen de Fransen te vechten. Na de dood van de koning vertrekt Robin naar Nottingham, een stad die lijdt onder de corruptie van een tirannieke schout en torenhoge belastingen. Daar valt hij voor de weduwe Lady Marian, die de identiteit en de motieven van deze kruisridder niet volledig vertrouwt. In de hoop de hand van Lady Marian te winnen en de stedelingen te redden, brengt Robin een bende bij elkaar die uitblinkt in dodelijke vechttrucs en levenslust. Samen vallen ze de rijke bovenklasse aan om het onrecht te herstellen...

In 13th century England, Robin and his band of marauders confront corruption in a local village and lead an uprising against the crown that will forever alter the balance of world power. 

http://www.imdb.com/title/tt0955308	

[COLOR=#3300FF]------------------------ Dutch Friends ------------------------
---------------------------------------------------------------
- Bezoek ook eens mijn vrienden op:  http://www.Film-Test.nl --
----- voor mijn Nederlandse Sync. ondertitels ---- en meer ----
------- http://www.Film-Test.nl ---- voor Films en meer -------
---------------------------------------------------------------[/COLOR]

General:

Complete name                    : Robin Hood\Robin Hood.avi
Format                           : AVI
Format/Info                      : Audio Video Interleave
File size                        : 2.35 GiB
Duration                         : 2h 29mn
Overall bit rate                 : 2 250 Kbps

Video:

Format                           : MPEG-4 Visual
Format profile                   : Simple@L3
Format settings, BVOP            : No
Format settings, QPel            : No
Format settings, GMC             : No warppoints
Format settings, Matrix          : Default (H.263)
Codec ID                         : XVID
Codec ID/Hint                    : XviD
Duration                         : 2h 29mn
Bit rate                         : 1 855 Kbps
Width                            : 720 pixels
Height                           : 304 pixels
Display aspect ratio             : 2.35:1
Frame rate                       : 25.000 fps
Color space                      : YUV
Chroma subsampling               : 4:2:0
Bit depth                        : 8 bits
Scan type                        : Progressive
Compression mode                 : Lossy
Bits/(Pixel*Frame)               : 0.339
Stream size                      : 1.94 GiB (82%)
Writing library                  : XviD 1.1.2 (UTC 2006-11-01)

Audio:

Format                           : AC-3
Format/Info                      : Audio Coding 3
Mode extension                   : CM (complete main)
Codec ID                         : 2000
Duration                         : 2h 29mn
Bit rate mode                    : Constant
Bit rate                         : 384 Kbps
Channel(s)                       : 6 channels
Channel positions                : Front: L C R, Side: L R, LFE
Sampling rate                    : 48.0 KHz
Bit depth                        : 16 bits
Compression mode                 : Lossy
Stream size                      : 410 MiB (17%)
Alignment                        : Aligned on interleaves
Interleave, duration             : 32 ms (0.80 video frame)
Interleave, preload duration     : 128 ms
Robin Hood/Robin Hood.avi 2.522 GB
Robin Hood/Cover/Robin Hood.jpg 52.317 KB
Robin Hood/www.Film-Test.nl.JPG 35.277 KB
Gathering some info...

Register and log in Isohunt and see no captcha anymore!

4000 symbols left
Hash 82f8af28cbbbe42467a1f7e1cf9b8df61185120d

Related torrents for "Robin Hood 201 DVDrip English Klam"

Torrent search:

dvdrip english