imdb
rating

7.4
Mission: Impossible – Ghost Protocol

Mission: Impossible – Ghost Protocol (2011)

Action, Adventure, Thriller

Full description

Mission Impossible - Ghost Protocol (2011) DVDRip XviD.AC3 - AM

Size 732.699 MB   0 seeders     Added 2012-01-01 03:57:20

Stream torrent
Starting‥ You need BitLord! Get it from BitLord.com
5.8
To download or stream you need BitLord. Visit them at BitLord.com
IMDb: http://www.imdb.com/title/tt1229238/ ------------------------------------------- Mission: Impossible - Ghost Protocol (2011) DVDRip_XviD.AC3 - AMEHCX -------------------------------------------------------------------- Sample................: Yes Sample Size...........: 5.51 MiB -------------------------------- Details: ------- Video ID : 0 Format : MPEG-4 Visual Format profile : AdvancedSimple@L5 Format settings, BVOP : Yes Format settings, QPel : No Format settings, GMC : No warppoints Format settings, Matrix : Custom Codec ID : XVID Codec ID/Hint : XviD Duration : 2h 13mn Bit rate : 1 631 Kbps Width : 720 pixels Height : 304 pixels Display aspect ratio : 2.35:1 Frame rate : 23.976 fps Resolution : 24 bits Colorimetry : 4:2:0 Scan type : Progressive Bits/(Pixel*Frame) : 0.311 Stream size : 690 MiB (99%) Writing library : XviD 58 Audio ID : 1 Format : AC-3 Format/Info : Audio Coding 3 Codec ID : 2000 Duration : 2h 13mn Bit rate mode : Constant Bit rate : 384 Kbps Channel(s) : 6 channels Channel positions : Front: L C R, Surround: L R, LFE Sampling rate : 48.0 KHz Stream size : 293 MiB (19%) Alignment : Aligned on interleaves Interleave, duration : 64 ms (1.54 video frames) Interleave, preload duration : 192 ms ----------------------------------------- Plot: ---- The IMF is shut down when it's implicated in the bombing of the Kremlin, causing Ethan Hunt and his new team to go rogue to clear their organization's name. Screenshots: ----------- image/ image/ image/ image/ image/ image/ image/ image/ image/ image/ -----------------------------------------------------
1.jpg 30.685 KB
2.jpg 32.202 KB
3.jpg 27.049 KB
Gathering some info...

Register and log in Isohunt and see no captcha anymore!

4000 symbols left
Hash 3ECFB4D2C482EAB8B91ED0C0A9B1ABB3F255DD34

Related torrents for "Mission Impossible - Ghost Protocol (2011) DVDRip XviD.AC3 - AM"

Torrent search:

dvdrip 2011