imdb
rating

7.4
Mission: Impossible – Ghost Protocol

Mission: Impossible – Ghost Protocol (2011)

Action, Adventure, Thriller

Full description

Mission Impossible Ghost Protocol 2011 CAM NEW AUDIO XViD SIC

Size 1.505 GB   0 seeders     Added 2012-01-01 04:03:33

Stream torrent
Starting‥ You need BitLord! Get it from BitLord.com
To download or stream you need BitLord. Visit them at BitLord.com
Description:\r\nThe IMF is shut down when it's implicated in the bombing of the Kremlin, causing\r\nEthan Hunt and his new team to go rogue to clear their organization's name.\r\n\r\nIMDB Rating: 7.9\r\nGenre: Action | Adventure | Thriller\r\n\r\nIMDB Link:\r\nhttp://www.imdb.com/title/tt1229238/\r\n\r\nMediaInfo:\r\nFormat : AVI\r\nFormat/Info : Audio Video Interleave\r\nFile size : 1.38 GiB\r\nDuration : 2h 6mn\r\nOverall bit rate : 1 562 Kbps\r\nWriting library : VirtualDub build 31536/release\r\n\r\nVideo\r\nID : 0\r\nFormat : MPEG-4 Visual\r\nFormat profile : Advanced Simple@L5\r\nFormat settings, BVOP : 2\r\nFormat settings, QPel : No\r\nFormat settings, GMC : No warppoints\r\nFormat settings, Matrix : Default (MPEG)\r\nMuxing mode : Packed bitstream\r\nCodec ID : XVID\r\nCodec ID/Hint : XviD\r\nDuration : 2h 6mn\r\nBit rate : 1 424 Kbps\r\nWidth : 642 pixels\r\nHeight : 282 pixels\r\nDisplay aspect ratio : 2.25:1\r\nFrame rate : 25.000 fps\r\nColor space : YUV\r\nChroma subsampling : 4:2:0\r\nBit depth : 8 bits\r\nScan type : Progressive\r\nCompression mode : Lossy\r\nBits/(Pixel*Frame) : 0.315\r\nStream size : 1.26 GiB (91%)\r\nWriting library : XviD 64\r\n\r\nAudio\r\nID : 1\r\nFormat : MPEG Audio\r\nFormat version : Version 1\r\nFormat profile : Layer 3\r\nMode : Joint stereo\r\nMode extension : MS Stereo\r\nCodec ID : 55\r\nCodec ID/Hint : MP3\r\nDuration : 2h 6mn\r\nBit rate mode : Constant\r\nBit rate : 128 Kbps\r\nChannel(s) : 2 channels\r\nSampling rate : 48.0 KHz\r\nCompression mode : Lossy\r\nDelay relative to video : 8ms\r\nStream size : 116 MiB (8%)\r\nAlignment : Split accross interleaves\r\nInterleave, duration : 40 ms (1.00 video frame)\r\nInterleave, preload duration : 500 ms\r\n\r\nLooking for fast download speeds come join http://dream-torrents.com for all the latest releases, with friendly staff online radio and games and much much more.
Mission.Impossible.Ghost.Protocol.2011.CAM.NEW.AUDIO.XViD-SIC.avi 1.485 GB
NFO.nfo 5.167 KB
Sample.avi 20.358 MB
Gathering some info...

Register and log in Isohunt and see no captcha anymore!

4000 symbols left
Hash 43205D682470F9660A52585827ADD4DF001E332B

Related torrents for "Mission Impossible Ghost Protocol 2011 CAM NEW AUDIO XViD SIC"

Torrent search:

cam 2011