From Beyond

From Beyond (2014)

Full description

Volbeat - Live From Beyond Hell - Above Heaven

Size 7.038 GB   6 seeders     Added 2012-01-03 04:12:07

Stream torrent
Starting‥ You need BitLord! Get it from 1BitLord.com
To download or stream you need BitLord. Visit them at BitLord.com
General
 Format : Matroska
 File size : 6.55 GiB
 Duration : 1h 34mn
 Overall bit rate : 9 952 Kbps
 Movie name : Volbeat - From Beyond Hell / Above Heaven 1080p
 Encoded date : UTC 2011-11-25 23:14:27
 Writing application : mkvmerge v5.0.1 ('Es ist Sommer') built on Oct 9 2011 11:55:43
 Writing library : libebml v1.2.2 + libmatroska v1.3.0
 Video #1
 ID : 1
 Format : AVC
 Format/Info : Advanced Video Codec
 Format profile : High@L4.1
 Format settings, CABAC : Yes
 Format settings, ReFrames : 4 frames
 Muxing mode : Container profile=Unknown@4.1
 Codec ID : V_MPEG4/ISO/AVC
 Duration : 1h 34mn
 Bit rate : 8 244 Kbps
 Nominal bit rate : 8 468 Kbps
 Width : 1 920 pixels
 Height : 1 080 pixels
 Display aspect ratio : 16:9
 Frame rate : 24.000 fps
 Resolution : 24 bits
 Colorimetry : 4:2:0
 Scan type : Progressive
 Bits/(Pixel*Frame) : 0.166
 Stream size : 5.43 GiB (83%)
 Writing library : x264 core 119 r2106 07efeb4
 Encoding settings : cabac=1 / ref=4 / deblock=1:0:0 / analyse=0x3:0x113 / me=umh / subme=7 / psy=1 / psy_rd=1.00:0.00 / mixed_ref=1 / me_range=16 / chroma_me=0 / trellis=1 / 8x8dct=1 / cqm=0 / deadzone=21,11 / fast_pskip=0 / chroma_qp_offset=-2 / threads=6 / sliced_threads=0 / nr=0 / decimate=1 / interlaced=0 / bluray_compat=0 / constrained_intra=0 / bframes=3 / b_pyramid=2 / b_adapt=1 / b_bias=0 / direct=1 / weightb=1 / open_gop=0 / weightp=2 / keyint=250 / keyint_min=24 / scenecut=40 / intra_refresh=0 / rc_lookahead=40 / rc=2pass / mbtree=1 / bitrate=8468 / ratetol=1.0 / qcomp=0.60 / qpmin=0 / qpmax=69 / qpstep=4 / cplxblur=20.0 / qblur=0.5 / ip_ratio=1.40 / aq=1:1.00
 Audio #2
 ID : 2
 Format : DTS
 Format/Info : Digital Theater Systems
 Codec ID : A_DTS
 Duration : 1h 34mn
 Bit rate mode : Constant
 Bit rate : 1 510 Kbps
 Channel(s) : 6 channels
 Channel positions : Front: L C R, Surround: L R, LFE
 Sampling rate : 48.0 KHz
 Resolution : 24 bits
 Stream size : 1 018 MiB (15%) 
Volbeat.-.Live.From.Beyond.Hell.-.Above.Heaven.FullHD.mkv 7.038 GB
Gathering some info...

Register and log in Isohunt and see no captcha anymore!

4000 symbols left
Hash C64739D0584DBC4DC677C2A5A684F1C2077817CC

Related torrents for "Volbeat - Live From Beyond Hell - Above Heaven"