Tower Heist 2011 HDRip XviD AC3-JSB (High-Speed SeedBox)

Size 1.277 GB   0 seeders     Added 2012-01-04 06:58:07

To download or stream you need BitLord. Visit them at BitLord.com
Tower Heist 2011 HDRip XviD AC3-JSB

Format                           : AVI
File size                        : 1.19 GiB
Duration                         : 1h 44mn

Format profile                   : Simple@L1
Format settings, BVOP            : No
Format settings, QPel            : No
Format settings, GMC             : No warppoints
Format settings, Matrix          : Default (MPEG)
Codec ID                         : XVID
Codec ID/Hint                    : XviD
Duration                         : 1h 44mn
Bit rate                         : 1 295 Kbps
Width                            : 720 pixels
Height                           : 400 pixels
Display aspect ratio             : 16:9
Frame rate                       : 23.976 fps
Color space                      : YUV
Chroma subsampling               : 4:2:0
Bit depth                        : 8 bits
Scan type                        : Progressive
Compression mode                 : Lossy
Bits/(Pixel*Frame)               : 0.192
Stream size                      : 1.06 GiB (77%)
Writing library                  : Lavc52.108.0

Format                           : AC-3
Format/Info                      : Audio Coding 3
Mode extension                   : CM (complete main)
Codec ID                         : 2000
Duration                         : 1h 54mn
Bit rate mode                    : Constant
Bit rate                         : 384 Kbps
Channel(s)                       : 6 channels
Channel positions                : Front: L C R, Side: L R, LFE
Sampling rate                    : 48.0 KHz
Bit depth                        : 16 bits
Compression mode                 : Lossy
Stream size                      : 88.2 MiB (6%)
Alignment                        : Aligned on interleaves
Interleave, duration             : 114 ms (2.73 video frames)
Interleave, preload duration     : 32 ms


http://www.imdb.com/title/tt0471042/

Genre : Action | Comedy 

Summary:

Josh Kovacs is the manager of a residential apartment in New York. He is close to all the tenants, 
especially Arthur Shaw, a financier. One day Shaw is arrested by the FBI for fraud. Josh thinks it\'s 
a misunderstanding that can be resolved. But later he learns that the employees\' pension which he asked 
Shaw to handle is gone. When one of the employees tries to kill himself, Josh\'s views of Shaw change. 
He goes to see him and loses his temper. He loses his job. The FBI agent in charge of Shaw tells him that 
Shaw might walk and recovering the pension fund is unlikely. She tells him that it\'s been rumored that Shaw 
has 20 million laying around if he needs. Josh thinks he knows where it is. So with two other employees who 
also lost their jobs and an evicted tenant, they set out to get into Shaw\'s penthouse to get the money. 
But they realise they need the assistance of someone who knows what they are doing. So, Josh asks a guy he 
knows is a thief named Slide to help them.  
Tower Heist 2011 HDRip XviD AC3-JSB (High-Speed SeedBox)/Tower Heist 2011 HDRip XviD AC3-JSB.jpg 82.436 KB
Tower Heist 2011 HDRip XviD AC3-JSB (High-Speed SeedBox)/Tower Heist 2011 HDRip XviD AC3-JSB.nfo 2.985 KB
Tower Heist 2011 HDRip XviD AC3-JSB (High-Speed SeedBox)/Tower Heist 2011 HDRip XviD AC3-JSB.rar 1.277 GB
Gathering some info...

Register and log in Isohunt and see no captcha anymore!

4000 symbols left
Hash f76c7945825b66be560f49901a0e6881885b2274