imdb
rating

6.4
Albatross

Albatross (2011)

Drama

Full description

Albatross 2011.CAM.NEW.AUDIO.XViD-SIC

Size 860.872 MB   0 seeders     Added 2012-01-06 10:58:49

Stream torrent
Starting‥ You need BitLord! Get it from BitLord.com
To download or stream you need BitLord. Visit them at BitLord.com
Albatross (2011)

Genre : Drama

Beth, a bookish teenager, befriends Emilia, an aspiring novelist who has just arrived in town. Emilia soon begins an affair with Beth's father that threatens to have devastating consequences.
Cast
Credited cast:    
Sebastian Koch     ...    Jonathan    
Julia Ormond     ...    Joa    
Felicity Jones     ...    Beth    
Peter Vaughan     ...    Grandpa    
Jessica Brown Findlay     ...    EmeliaRest of cast listed alphabetically:    
Marie-France Alvarez     ...    Female customer    
Angus Barnett     ...    Man Guest    
Louisa Bawden     ...    Margaret    
Kenneth Collard     ...    Angry Man    
James Richard Marshall     ...    Impotent Man (as Richard Marshall)    
Laura Power     ...    Brainbox Girl    
Chandra Ruegg     ...    Waitress    
Mark Ryder     ...    Rich    
Harry Treadaway        
Alexis Zegerman     ...    Manager
Complete name :Albatross 2011 CAM NEW AUDIO XViD SIC
Format : AVI
Format/Info : Audio Video Interleave
File size : 1.01 GiB
Duration : 1h 38mn
Overall bit rate : 1 464 Kbps
Writing library : MPlayer

Video
ID : 0
Format : MPEG-4 Visual
Format profile : Advanced Simple@L5
Format settings, BVOP : 2
Format settings, QPel : No
Format settings, GMC : No warppoints
Format settings, Matrix : Default (H.263)
Codec ID : XVID
Codec ID/Hint : XviD
Duration : 1h 38mn
Bit rate : 1 196 Kbps
Width : 640 pixels
Height : 352 pixels
Display aspect ratio : 16:9
Frame rate : 23.976 fps
Color space : YUV
Chroma subsampling : 4:2:0
Bit depth : 8 bits
Scan type : Progressive
Compression mode : Lossy
Bits/(Pixel*Frame) : 0.221
Stream size : 846 MiB (82%)
Writing library : XviD 63

Audio
ID : 1
Format : MPEG Audio
Format version : Version 1
Format profile : Layer 3
Mode : Joint stereo
Mode extension : MS Stereo
Codec ID : 55
Codec ID/Hint : MP3
Duration : 1h 38mn
Bit rate mode : Constant
Bit rate : 256 Kbps
Channel(s) : 2 channels
Sampling rate : 44.1 KHz
Compression mode : Lossy
Delay relative to video : 42ms
Stream size : 181 MiB (17%)
Alignment : Aligned on interleaves
Interleave, duration : 26 ms (0.63 video frame)
Interleave, preload duration : 809 ms
Writing library : LAME3.98.4
Albatross 2011.CAM.NEW.AUDIO.XViD-SIC/Albatross 2011.CAM.NEW.AUDIO.XViD-SIC.avi 860.73 MB
Albatross 2011.CAM.NEW.AUDIO.XViD-SIC/MOVIE.nfo 4.858 KB
Albatross 2011.CAM.NEW.AUDIO.XViD-SIC/Subs[ENG].srt 136.693 KB
Gathering some info...

Register and log in Isohunt and see no captcha anymore!

4000 symbols left
Hash 84be58f4cea1fc15a04122a1a9acd729f20b4eaa

Related torrents for "Albatross 2011.CAM.NEW.AUDIO.XViD-SIC"

Torrent search:

cam 2011