imdb
rating

6.6
Albert Nobbs

Albert Nobbs (2011)

Drama

Full description

Albert Nobbs2011 TS Xvid READ NFO-UnKnOwN

Size 917.495 MB   0 seeders     Added 2012-01-06 12:48:43

Stream torrent
Starting‥ You need BitLord! Get it from 1BitLord.com
To download or stream you need BitLord. Visit them at BitLord.com
Albert Nobbs (2011)

Genre : Drama  

Glenn Close plays a woman passing as a man in order to work and survive in 19th century Ireland. Some thirty years after donning men's clothing, she finds herself trapped in a prison of her own making.

http://www.imdb.com/title/tt1602098/
Cast
Credited cast:
Jonathan Rhys Meyers	 ...	Viscount Yarrell
Mia Wasikowska	 ...	Helen Dawes
Aaron Johnson	 ...	Joe Macken	
Glenn Close	 ...	Albert Nobbs	
Brendan Gleeson	 ...	Dr. Holloran	
Janet McTeer	 ...	Hubert Page	
Maria Doyle Kennedy	 ...	Mary	
Brenda Fricker	 ...	Polly	
Mark Williams	 ...	Sean 	
Pauline Collins	 ...	Mrs. Bake 	
Bronagh Gallagher	 ...	Cathleen 	
John Light	 ...	Percy Smythe-Willard
Antonia Campbell-Hughes	 ...	Emmy Keyes	
Annie Starke	 ...	Aileen	
Phoebe Waller-Bridge	 ...	Viscountess Yarrell
Complete name :Albert Nobbs2011 TS Xvid READ NFO-UnKnOwN
Format : AVI 
Format/Info : Audio Video Interleave 
File size : 1.01 GiB 
Duration : 1h 38mn 
Overall bit rate : 1 464 Kbps 
Writing library : MPlayer 

Video 
ID : 0 
Format : MPEG-4 Visual 
Format profile : Advanced Simple@L5 
Format settings, BVOP : 2 
Format settings, QPel : No 
Format settings, GMC : No warppoints 
Format settings, Matrix : Default (H.263) 
Codec ID : XVID 
Codec ID/Hint : XviD 
Duration : 1h 38mn 
Bit rate : 1 196 Kbps 
Width : 640 pixels 
Height : 352 pixels 
Display aspect ratio : 16:9 
Frame rate : 23.976 fps 
Color space : YUV 
Chroma subsampling : 4:2:0 
Bit depth : 8 bits 
Scan type : Progressive 
Compression mode : Lossy 
Bits/(Pixel*Frame) : 0.221 
Stream size : 846 MiB (82%) 
Writing library : XviD 63 

Audio 
ID : 1 
Format : MPEG Audio 
Format version : Version 1 
Format profile : Layer 3 
Mode : Joint stereo 
Mode extension : MS Stereo 
Codec ID : 55 
Codec ID/Hint : MP3 
Duration : 1h 38mn 
Bit rate mode : Constant 
Bit rate : 256 Kbps 
Channel(s) : 2 channels 
Sampling rate : 44.1 KHz 
Compression mode : Lossy 
Delay relative to video : 42ms 
Stream size : 181 MiB (17%) 
Alignment : Aligned on interleaves 
Interleave, duration : 26 ms (0.63 video frame) 
Interleave, preload duration : 809 ms 
Writing library : LAME3.98.4
Albert Nobbs2011 TS Xvid READ NFO-UnKnOwN/Albert Nobbs2011 TS Xvid READ NFO-UnKnOwN.avi 917.353 MB
Albert Nobbs2011 TS Xvid READ NFO-UnKnOwN/MOVIE.nfo 4.858 KB
Albert Nobbs2011 TS Xvid READ NFO-UnKnOwN/Subs[ENG].srt 136.693 KB
Gathering some info...

Register and log in Isohunt and see no captcha anymore!

4000 symbols left
Hash e75d8ed24dfa417e720f515055ed16eded8aad43

Related torrents for "Albert Nobbs2011 TS Xvid READ NFO-UnKnOwN"

Torrent search:

telesync