Haywire.2011 TS AC3 H264 CRYS

Size 910.155 MB   0 seeders     Added 2012-01-06 17:45:17

Stream torrent
Starting‚Ä• You need BitLord! Get it from BitLord.com
To download or stream you need BitLord. Visit them at BitLord.com
Haywire (2011)

Genre : Action | Thriller

A black ops super soldier seeks payback after she is betrayed and set up during a mission.
Cast
Cast overview, first billed only:
Channing Tatum     ...    Aaron
Michael Fassbender     ...    Paul    
Ewan McGregor     ...    Kenneth    
Michael Douglas     ...    Coblenz    
Antonio Banderas     ...    Rodrigo    
Michael Angarano     ...    Scott    
Bill Paxton     ...    John Kane    
Gina Carano     ...    Mallory Kane    
Mathieu Kassovitz        
Eddie J. Fernandez     ...    Barroso    
Anthony Brandon Wong     ...    Jiang    
Tim Connolly     ...    Jason     
Maximino Arciniega     ...    Gomez
Aaron Cohen     ...    Jamie
Natascha Berg     ...    Liliana
Complete name :Haywire 2011 TS AC3 H264 CRYS
Format : AVI
Format/Info : Audio Video Interleave
File size : 1.01 GiB
Duration : 1h 38mn
Overall bit rate : 1 464 Kbps
Writing library : MPlayer

Video
ID : 0
Format : MPEG-4 Visual
Format profile : Advanced Simple@L5
Format settings, BVOP : 2
Format settings, QPel : No
Format settings, GMC : No warppoints
Format settings, Matrix : Default (H.263)
Codec ID : XVID
Codec ID/Hint : XviD
Duration : 1h 38mn
Bit rate : 1 196 Kbps
Width : 640 pixels
Height : 352 pixels
Display aspect ratio : 16:9
Frame rate : 23.976 fps
Color space : YUV
Chroma subsampling : 4:2:0
Bit depth : 8 bits
Scan type : Progressive
Compression mode : Lossy
Bits/(Pixel*Frame) : 0.221
Stream size : 846 MiB (82%)
Writing library : XviD 63

Audio
ID : 1
Format : MPEG Audio
Format version : Version 1
Format profile : Layer 3
Mode : Joint stereo
Mode extension : MS Stereo
Codec ID : 55
Codec ID/Hint : MP3
Duration : 1h 38mn
Bit rate mode : Constant
Bit rate : 256 Kbps
Channel(s) : 2 channels
Sampling rate : 44.1 KHz
Compression mode : Lossy
Delay relative to video : 42ms
Stream size : 181 MiB (17%)
Alignment : Aligned on interleaves
Interleave, duration : 26 ms (0.63 video frame)
Interleave, preload duration : 809 ms 
Haywire.2011 TS AC3 H264 CRYS/Haywire.2011 TS AC3 H264 CRYS.avi 910.013 MB
Haywire.2011 TS AC3 H264 CRYS/MOVIE.nfo 4.858 KB
Haywire.2011 TS AC3 H264 CRYS/Subs[ENG].srt 136.693 KB
Gathering some info...

Register and log in Isohunt and see no captcha anymore!

4000 symbols left
Hash f95dae96762023afc578f3c0c92fbaf6fefdbd29