imdb
rating

6.3
A Very Harold & Kumar Christmas

A Very Harold & Kumar Christmas (2011)

Comedy

Full description
quality   cam bd dvdrip dvd telesync hd

A Very Harold & Kumar 3D Christmas 2011 DVDRip .XviD .AC3-3LT0N

Size 695.303 MB   0 seeders     Added 2012-01-07 02:12:59

Stream torrent
Starting‥ You need BitLord! Get it from BitLord.com
To download or stream you need BitLord. Visit them at BitLord.com
Sources:
DVDR

Notes:
Encoded the video added a few filters to make it look nice :)


Greetz:
To all the people who have helped me :P you know who you are


Video
ID                                       : 0
Format                                   : MPEG-4 Visual
Format profile                           : Advanced Simple@L5
Format settings, BVOP                    : 2
Format settings, QPel                    : No
Format settings, GMC                     : No warppoints
Format settings, Matrix                  : Default (H.263)
Muxing mode                              : Packed bitstream
Codec ID                                 : XVID
Codec ID/Hint                            : XviD
Bit rate                                 : 2 295 Kbps
Width                                    : 720 pixels
Height                                   : 388 pixels
Display aspect ratio                     : 1.856
Frame rate                               : 25.000 fps
Color space                              : YUV
Chroma subsampling                       : 4:2:0
Bit depth                                : 8 bits
Scan type                                : Progressive
Compression mode                         : Lossy
Bits/(Pixel*Frame)                       : 0.329
Stream size                              : 1.49 GiB (83%)
Writing library                          : XviD 1.2.1 (UTC 2008-12-04)

Audio
ID                                       : 1
Format                                   : AC-3
Format/Info                              : Audio Coding 3
Mode extension                           : CM (complete main)
Codec ID                                 : 2000
Bit rate mode                            : Constant
Bit rate                                 : 448 Kbps
Channel(s)                               : 6 channels
Channel positions                        : Front: L C R, Side: L R, LFE
Sampling rate                            : 48.0 KHz
Bit depth                                : 16 bits
Compression mode                         : Lossy
Stream size                              : 298 MiB (16%)
Alignment                                : Aligned on interleaves
Interleave, duration                     : 32 ms (0.80 video frame)
Interleave, preload duration             : 32 ms
A Very Harold & Kumar 3D Christmas 2011 DVDRip .XviD .AC3-3LT0N/A Very Harold & Kumar 3D Christmas 2011 DVDRip .XviD .AC3-3LT0N.avi 695.142 MB
A Very Harold & Kumar 3D Christmas 2011 DVDRip .XviD .AC3-3LT0N/NFO.movie.nfo 11.085 KB
A Very Harold & Kumar 3D Christmas 2011 DVDRip .XviD .AC3-3LT0N/Subs ENG.srt 82.896 KB
Gathering some info...

Register and log in Isohunt and see no captcha anymore!

4000 symbols left
Hash 40e1a2930709cf275e1590b4e81195c1a6d0d3b2

Related torrents for "A Very Harold & Kumar 3D Christmas 2011 DVDRip .XviD .AC3-3LT0N"

Torrent search:

dvdrip 2011