imdb
rating

6.2
The Thing

The Thing (2011)

Horror, Mystery, Science Fiction, Thriller

Full description
quality   dvdrip cam bd telesync

The Thing 2011 DVDRip .XviD .AC3-3LT0N

Size 671.843 MB   0 seeders     Added 2012-01-07 03:11:44

Stream torrent
Starting‥ You need BitLord! Get it from BitLord.com
To download or stream you need BitLord. Visit them at BitLord.com
Sources:
DVDR

Notes:
Encoded the video added a few filters to make it look nice :)


Greetz:
To all the people who have helped me :P you know who you are


Video
ID                                       : 0
Format                                   : MPEG-4 Visual
Format profile                           : Advanced Simple@L5
Format settings, BVOP                    : 2
Format settings, QPel                    : No
Format settings, GMC                     : No warppoints
Format settings, Matrix                  : Default (H.263)
Muxing mode                              : Packed bitstream
Codec ID                                 : XVID
Codec ID/Hint                            : XviD
Bit rate                                 : 2 295 Kbps
Width                                    : 720 pixels
Height                                   : 388 pixels
Display aspect ratio                     : 1.856
Frame rate                               : 25.000 fps
Color space                              : YUV
Chroma subsampling                       : 4:2:0
Bit depth                                : 8 bits
Scan type                                : Progressive
Compression mode                         : Lossy
Bits/(Pixel*Frame)                       : 0.329
Stream size                              : 1.49 GiB (83%)
Writing library                          : XviD 1.2.1 (UTC 2008-12-04)

Audio
ID                                       : 1
Format                                   : AC-3
Format/Info                              : Audio Coding 3
Mode extension                           : CM (complete main)
Codec ID                                 : 2000
Bit rate mode                            : Constant
Bit rate                                 : 448 Kbps
Channel(s)                               : 6 channels
Channel positions                        : Front: L C R, Side: L R, LFE
Sampling rate                            : 48.0 KHz
Bit depth                                : 16 bits
Compression mode                         : Lossy
Stream size                              : 298 MiB (16%)
Alignment                                : Aligned on interleaves
Interleave, duration                     : 32 ms (0.80 video frame)
Interleave, preload duration             : 32 ms
The Thing 2011 DVDRip .XviD .AC3-3LT0N/NFO.movie.nfo 11.085 KB
The Thing 2011 DVDRip .XviD .AC3-3LT0N/Subs ENG.srt 82.896 KB
The Thing 2011 DVDRip .XviD .AC3-3LT0N/Subs Rus.srt 66.476 KB
Gathering some info...

Register and log in Isohunt and see no captcha anymore!

4000 symbols left
Hash 48b6e15976d1b263a3b3a995f22728c110a1f7c0

Related torrents for "The Thing 2011 DVDRip .XviD .AC3-3LT0N"

Torrent search:

dvdrip 2011