imdb
rating

4.5
Beneath the Darkness

Beneath the Darkness (2011)

Thriller

Full description

Beneath the Darkness 2011 CAM XVID-WBZ

Size 940.089 MB   0 seeders     Added 2012-01-07 19:46:46

Stream torrent
Starting‥ You need BitLord! Get it from BitLord.com
To download or stream you need BitLord. Visit them at BitLord.com
image

Beneath the Darkness 2011 CAM XVID-WBZ

Imdb: 
http://www.imdb.com/title/tt1781775/


The plot:
After watching their best friend get murdered, a group of teens struggle to expose a 

local hero as the vicious killer and keep from becoming his next victims.


Sources:
DVDrip


Notes:
VERY GOOD VIDEO AND AUDIO! ENJOY!!



Video
ID                                       : 0
Format                                   : MPEG-4 Visual
Format profile                           : Advanced Simple@L5
Format settings, BVOP                    : 2
Format settings, QPel                    : No
Format settings, GMC                     : No warppoints
Format settings, Matrix                  : Default (H.263)
Muxing mode                              : Packed bitstream
Codec ID                                 : XVID
Codec ID/Hint                            : XviD
Duration                                 : 2h 2mn
Bit rate                                 : 953 Kbps
Width                                    : 720 pixels
Height                                   : 300 pixels
Display aspect ratio                     : 2.40:1
Frame rate                               : 25.000 fps
Color space                              : YUV
Chroma subsampling                       : 4:2:0
Bit depth                                : 8 bits
Scan type                                : Progressive
Compression mode                         : Lossy
Bits/(Pixel*Frame)                       : 0.176
Stream size                              : 832 MiB (71%)
Writing library                          : XviD 1.2.1 (UTC 2008-12-04)


Audio
ID                                       : 1
Format                                   : AC-3
Format/Info                              : Audio Coding 3
Mode extension                           : CM (complete main)
Codec ID                                 : 2000
Duration                                 : 2h 2mn
Bit rate mode                            : Constant
Bit rate                                 : 384 Kbps
Channel(s)                               : 6 channels
Channel positions                        : Front: L C R, Side: L R, LFE
Sampling rate                            : 48.0 KHz
Bit depth                                : 16 bits
Compression mode                         : Lossy
Stream size                              : 335 MiB (28%)
Alignment                                : Aligned on interleaves
Interleave, duration                     : 32 ms (0.80 video frame)
Interleave, preload duration             : 32 ms



[/code]
Screens:image

Thank you smallz for banner!		
Beneath the Darkness 2011 CAM XVID-WBZ/Beneath the Darkness 2011 CAM XVID-WBZ.avi 915.256 MB
Beneath the Darkness 2011 CAM XVID-WBZ/Beneath the Darkness Trailer 2011.mp4 24.356 MB
Beneath the Darkness 2011 CAM XVID-WBZ/MOVIE.nfo 4.858 KB
Gathering some info...

Register and log in Isohunt and see no captcha anymore!

4000 symbols left
Hash c0935c601934e6a198d01ceaca2dbd6a6ef35811

Related torrents for "Beneath the Darkness 2011 CAM XVID-WBZ"

Torrent search:

cam 2011