imdb
rating

6.5
Contraband

Contraband (2012)

Action, Crime, Drama, Thriller

Full description

Contraband 2012 TS2DVD DD2 0 NL Subs

Size 951.46 MB   0 seeders     Added 2012-01-12 00:16:56

Stream torrent
Starting‥ You need BitLord! Get it from BitLord.com
To download or stream you need BitLord. Visit them at BitLord.com
image

Contraband 2012 TS2DVD DD2 0 NL Subs

Imdb: 
http://www.imdb.com/title/tt1524137/


The plot:
To protect his brother-in-law from a drug lord, a former smuggler heads to Panama to 

score millions of dollars in counterfeit bills.


Sources:
DVDrip


Notes:
VERY GOOD VIDEO AND AUDIO! ENJOY!!



Video
ID                                       : 0
Format                                   : MPEG-4 Visual
Format profile                           : Advanced Simple@L5
Format settings, BVOP                    : 2
Format settings, QPel                    : No
Format settings, GMC                     : No warppoints
Format settings, Matrix                  : Default (H.263)
Muxing mode                              : Packed bitstream
Codec ID                                 : XVID
Codec ID/Hint                            : XviD
Duration                                 : 2h 2mn
Bit rate                                 : 953 Kbps
Width                                    : 720 pixels
Height                                   : 300 pixels
Display aspect ratio                     : 2.40:1
Frame rate                               : 25.000 fps
Color space                              : YUV
Chroma subsampling                       : 4:2:0
Bit depth                                : 8 bits
Scan type                                : Progressive
Compression mode                         : Lossy
Bits/(Pixel*Frame)                       : 0.176
Stream size                              : 832 MiB (71%)
Writing library                          : XviD 1.2.1 (UTC 2008-12-04)


Audio
ID                                       : 1
Format                                   : AC-3
Format/Info                              : Audio Coding 3
Mode extension                           : CM (complete main)
Codec ID                                 : 2000
Duration                                 : 2h 2mn
Bit rate mode                            : Constant
Bit rate                                 : 384 Kbps
Channel(s)                               : 6 channels
Channel positions                        : Front: L C R, Side: L R, LFE
Sampling rate                            : 48.0 KHz
Bit depth                                : 16 bits
Compression mode                         : Lossy
Stream size                              : 335 MiB (28%)
Alignment                                : Aligned on interleaves
Interleave, duration                     : 32 ms (0.80 video frame)
Interleave, preload duration             : 32 ms



[/code]
image

Thank you smallz for banner!
Contraband 2012 TS2DVD DD2 0 NL Subs/Contraband 2012 TS2DVD DD2 0 NL Subs.avi 923.645 MB
Contraband 2012 TS2DVD DD2 0 NL Subs/Contraband.mp4 27.518 MB
Contraband 2012 TS2DVD DD2 0 NL Subs/contraband.png 154.994 KB
Gathering some info...

Register and log in Isohunt and see no captcha anymore!

4000 symbols left
Hash d3e05f291e03991b51b2e43263973c8c5102a7a2

Related torrents for "Contraband 2012 TS2DVD DD2 0 NL Subs"

Torrent search:

subs 2012