imdb
rating

5.7
Joyful Noise

Joyful Noise (2012)

Comedy, Music

Full description

Joyful Noise (2012) DVDRiP XViD NoGRP

Size 1.071 GB   0 seeders     Added 2012-01-12 02:19:34

Stream torrent
Starting‥ You need BitLord! Get it from BitLord.com
To download or stream you need BitLord. Visit them at BitLord.com
image


Joyful Noise (2012) DVDRiP XViD NoGRP


Imdb: 
http://www.imdb.com/title/tt1710396/


The plot:
Two choir members have differing opinions on how to win the national choir competition.


Sources:
DVDrip


Notes:
VERY GOOD VIDEO AND AUDIO! ENJOY!!



Video
ID                                       : 0
Format                                   : MPEG-4 Visual
Format profile                           : Advanced Simple@L5
Format settings, BVOP                    : 2
Format settings, QPel                    : No
Format settings, GMC                     : No warppoints
Format settings, Matrix                  : Default (H.263)
Muxing mode                              : Packed bitstream
Codec ID                                 : XVID
Codec ID/Hint                            : XviD
Duration                                 : 2h 2mn
Bit rate                                 : 953 Kbps
Width                                    : 720 pixels
Height                                   : 300 pixels
Display aspect ratio                     : 2.40:1
Frame rate                               : 25.000 fps
Color space                              : YUV
Chroma subsampling                       : 4:2:0
Bit depth                                : 8 bits
Scan type                                : Progressive
Compression mode                         : Lossy
Bits/(Pixel*Frame)                       : 0.176
Stream size                              : 832 MiB (71%)
Writing library                          : XviD 1.2.1 (UTC 2008-12-04)


Audio
ID                                       : 1
Format                                   : AC-3
Format/Info                              : Audio Coding 3
Mode extension                           : CM (complete main)
Codec ID                                 : 2000
Duration                                 : 2h 2mn
Bit rate mode                            : Constant
Bit rate                                 : 384 Kbps
Channel(s)                               : 6 channels
Channel positions                        : Front: L C R, Side: L R, LFE
Sampling rate                            : 48.0 KHz
Bit depth                                : 16 bits
Compression mode                         : Lossy
Stream size                              : 335 MiB (28%)
Alignment                                : Aligned on interleaves
Interleave, duration                     : 32 ms (0.80 video frame)
Interleave, preload duration             : 32 ms



[/code]
image

Thank you smallz for banner!
Joyful Noise (2012) DVDRiP XViD NoGRP/Joyful Noise (2012) DVDRiP XViD NoGRP .avi 995.997 MB
Joyful Noise (2012) DVDRiP XViD NoGRP/Joyful noise.mp4 74.353 MB
Joyful Noise (2012) DVDRiP XViD NoGRP/MOVIE.nfo 4.858 KB
Gathering some info...

Register and log in Isohunt and see no captcha anymore!

4000 symbols left
Hash ebc55b9b18bb7391529a21565caab902218ce529

Related torrents for "Joyful Noise (2012) DVDRiP XViD NoGRP"

Torrent search:

dvdrip 2012