imdb
rating

8.0
Beauty and the Beast

Beauty and the Beast (1991)

Animation, Fantasy, Music, Romance, Family

Full description

Beauty and the Beast 1991 - [3D re-release] DVDSCR XviD FTW

Size 920.646 MB   0 seeders     Added 2012-01-12 21:24:46

Stream torrent
Starting‥ You need BitLord! Get it from BitLord.com
To download or stream you need BitLord. Visit them at BitLord.com
image


Beauty and the Beast 1991 - [3D re-release] DVDSCR XviD FTW


Imdb: 
http://www.imdb.com/title/tt0101414/


The plot:
Belle, whose father is imprisoned by the Beast, offers herself instead and discovers her captor to be an enchanted prince.


Sources:
DVDrip


Notes:
VERY GOOD VIDEO AND AUDIO! ENJOY!!



Video
ID                                       : 0
Format                                   : MPEG-4 Visual
Format profile                           : Advanced Simple@L5
Format settings, BVOP                    : 2
Format settings, QPel                    : No
Format settings, GMC                     : No warppoints
Format settings, Matrix                  : Default (H.263)
Muxing mode                              : Packed bitstream
Codec ID                                 : XVID
Codec ID/Hint                            : XviD
Duration                                 : 2h 2mn
Bit rate                                 : 953 Kbps
Width                                    : 720 pixels
Height                                   : 300 pixels
Display aspect ratio                     : 2.40:1
Frame rate                               : 25.000 fps
Color space                              : YUV
Chroma subsampling                       : 4:2:0
Bit depth                                : 8 bits
Scan type                                : Progressive
Compression mode                         : Lossy
Bits/(Pixel*Frame)                       : 0.176
Stream size                              : 832 MiB (71%)
Writing library                          : XviD 1.2.1 (UTC 2008-12-04)


Audio
ID                                       : 1
Format                                   : AC-3
Format/Info                              : Audio Coding 3
Mode extension                           : CM (complete main)
Codec ID                                 : 2000
Duration                                 : 2h 2mn
Bit rate mode                            : Constant
Bit rate                                 : 384 Kbps
Channel(s)                               : 6 channels
Channel positions                        : Front: L C R, Side: L R, LFE
Sampling rate                            : 48.0 KHz
Bit depth                                : 16 bits
Compression mode                         : Lossy
Stream size                              : 335 MiB (28%)
Alignment                                : Aligned on interleaves
Interleave, duration                     : 32 ms (0.80 video frame)
Interleave, preload duration             : 32 ms



[/code]
image

Thank you smallz for banner!
Beauty and the Beast 1991 - [3D re-release] DVDSCR XviD FTW/Beauty And The Beast 3D 6.938 MB
Beauty and the Beast 1991 - [3D re-release] DVDSCR XviD FTW/Beauty and the Beast 1991 - [3D re-release] DVDSCR XviD FTW.avi 913.159 MB
Beauty and the Beast 1991 - [3D re-release] DVDSCR XviD FTW/Beautyandthebeasttheatricalposter.jpg 407.606 KB
Gathering some info...

Register and log in Isohunt and see no captcha anymore!

4000 symbols left
Hash 482c5de48dd096b7f033c57ec9c7eeb9f1133cc0

Related torrents for "Beauty and the Beast 1991 - [3D re-release] DVDSCR XviD FTW"

Torrent search:

screener 1991