imdb
rating

7.1
Arthur Christmas

Arthur Christmas (2011)

Animation, Comedy, Drama, Family

Full description

Arthur Christmas 2011 R5 DVDRip XviD AC3-26K.torrent

Size 1.189 GB   0 seeders     Added 2012-01-13 21:57:25

Stream torrent
Starting‥ You need BitLord! Get it from BitLord.com
To download or stream you need BitLord. Visit them at BitLord.com
Sources:
LUMX1 FOR DVDR!!!

Notes:
VERY GOOD VIDEO AND AUDIO! ENJOY!!

Greetz:
Xtreme Encode|FYA|ILLUMANTI|CM8|RX|VISION|HDSCENE|NIGHTMAREZ|xTriLL|DTRG|CRYS|REMIXHD|BIDA|RX|REFILL| INSPiRAL|SIC
To all the people who have helped me :P you know who you are



Video
ID                                       : 0
Format                                   : MPEG-4 Visual
Format profile                           : Advanced Simple@L5
Format settings, BVOP                    : 2
Format settings, QPel                    : No
Format settings, GMC                     : No warppoints
Format settings, Matrix                  : Default (H.263)
Muxing mode                              : Packed bitstream
Codec ID                                 : XVID
Codec ID/Hint                            : XviD
Bit rate                                 : 953 Kbps
Width                                    : 720 pixels
Height                                   : 300 pixels
Display aspect ratio                     : 2.40:1
Frame rate                               : 25.000 fps
Color space                              : YUV
Chroma subsampling                       : 4:2:0
Bit depth                                : 8 bits
Scan type                                : Progressive
Compression mode                         : Lossy
Bits/(Pixel*Frame)                       : 0.176
Stream size                              : 832 MiB (71%)
Writing library                          : XviD 1.2.1 (UTC 2008-12-04)

Audio
ID                                       : 1
Format                                   : AC-3
Format/Info                              : Audio Coding 3
Mode extension                           : CM (complete main)
Codec ID                                 : 2000
Bit rate mode                            : Constant
Bit rate                                 : 384 Kbps
Channel(s)                               : 6 channels
Channel positions                        : Front: L C R, Side: L R, LFE
Sampling rate                            : 48.0 KHz
Bit depth                                : 16 bits
Compression mode                         : Lossy
Stream size                              : 335 MiB (28%)
Alignment                                : Aligned on interleaves
Interleave, duration                     : 32 ms (0.80 video frame)
Interleave, preload duration             : 32 ms
Arthur Christmas 2011 R5 DVDRip XviD AC3-26K/2011 R5 DVDRip XviD AC3-26K.nfo 2.583 KB
Arthur Christmas 2011 R5 DVDRip XviD AC3-26K/Arthur Christmas 2011 R5 DVDRip XviD AC3-26K.avi 1.189 GB
Arthur Christmas 2011 R5 DVDRip XviD AC3-26K/att-networks.com.txt 39 B
Gathering some info...

Register and log in Isohunt and see no captcha anymore!

4000 symbols left
Hash 34baccbd6b6e1c2044eafa2d0041a4c1a6cf52eb

Related torrents for "Arthur Christmas 2011 R5 DVDRip XviD AC3-26K.torrent"

Torrent search:

dvdrip dvd 2011