imdb
rating

7.4
The Adventures of Tintin

The Adventures of Tintin (2011)

Action, Adventure, Animation, Mystery, Family

Full description
quality   hd cam dvd

The Adventures of Tintin 2011 DVDRip.XviD.AC3-3LT0N

Size 1.216 GB   0 seeders     Added 2012-01-14 08:02:15

Stream torrent
Starting‥ You need BitLord! Get it from BitLord.com
To download or stream you need BitLord. Visit them at BitLord.com
Sources:
DVDR

Notes:
Encoded the video added a few filters to make it look nice :)


Greetz:
To all the people who have helped me :P you know who you are

Anything to offer email us @: 26k@hushmail.me

Video
ID                                       : 0
Format                                   : MPEG-4 Visual
Format profile                           : Advanced Simple@L5
Format settings, BVOP                    : 2
Format settings, QPel                    : No
Format settings, GMC                     : No warppoints
Format settings, Matrix                  : Default (H.263)
Muxing mode                              : Packed bitstream
Codec ID                                 : XVID
Codec ID/Hint                            : XviD
Duration                                 : 1h 32mn
Bit rate                                 : 2 295 Kbps
Width                                    : 720 pixels
Height                                   : 388 pixels
Display aspect ratio                     : 1.856
Frame rate                               : 25.000 fps
Color space                              : YUV
Chroma subsampling                       : 4:2:0
Bit depth                                : 8 bits
Scan type                                : Progressive
Compression mode                         : Lossy
Bits/(Pixel*Frame)                       : 0.329
Stream size                              : 1.49 GiB (83%)
Writing library                          : XviD 1.2.1 (UTC 2008-12-04)

Audio
ID                                       : 1
Format                                   : AC-3
Format/Info                              : Audio Coding 3
Mode extension                           : CM (complete main)
Codec ID                                 : 2000
Duration                                 : 1h 32mn
Bit rate mode                            : Constant
Bit rate                                 : 448 Kbps
Channel(s)                               : 6 channels
Channel positions                        : Front: L C R, Side: L R, LFE
Sampling rate                            : 48.0 KHz
Bit depth                                : 16 bits
Compression mode                         : Lossy
Stream size                              : 298 MiB (16%)
Alignment                                : Aligned on interleaves
Interleave, duration                     : 32 ms (0.80 video frame)
Interleave, preload duration             : 32 ms
The Adventures of Tintin 2011 DVDRip.XviD.AC3-3LT0N/3LT0N-NFO.nfo 7.678 KB
The Adventures of Tintin 2011 DVDRip.XviD.AC3-3LT0N/subs/Real.Steel.2011.DVDRip.XviD.AC3-3LT0N.srt 115.236 KB
The Adventures of Tintin 2011 DVDRip.XviD.AC3-3LT0N/The Adventures of Tintin 2011 DVDRip.XviD.AC3-3LT0N.avi 1.216 GB
Gathering some info...

Register and log in Isohunt and see no captcha anymore!

4000 symbols left
Hash 905079875fe1d4fb4dadc61cc2b62c23f14a3166

Related torrents for "The Adventures of Tintin 2011 DVDRip.XviD.AC3-3LT0N"

Torrent search:

dvdrip 2011