imdb
rating

7.4
The Adventures of Tintin

The Adventures of Tintin (2011)

Action, Adventure, Animation, Mystery, Family

Full description
quality   hd cam dvd

The Adventures of Tintin .2011.DVDSCR.XVID.Une- CM8

Size 1.237 GB   0 seeders     Added 2012-01-14 18:14:31

Stream torrent
Starting‥ You need BitLord! Get it from BitLord.com
To download or stream you need BitLord. Visit them at BitLord.com
Ok just a little something to keep ya happy
Had to be a small rip or it would take me a week to get it on my seeder :lol:
The masters will be working on better more suitable encodes for you quality nuts out there
Has the occasional property of logo 
Enjoy[/b]



General
Complete name                    : War.Horse.2011.DVDSCR.XVID.Une-CM8.avi
Format                           : AVI
Format/Info                      : Audio Video Interleave
Overall bit rate mode            : Variable
Overall bit rate                 : 668 Kbps
Writing application              : VirtualDubMod 1.5.4.1 (build 2178/release)
Writing library                  : VirtualDubMod build 2178/release

Video
ID                               : 0
Format                           : MPEG-4 Visual
Format profile                   : Advanced Simple@L5
Format settings, BVOP            : 1
Format settings, QPel            : No
Format settings, GMC             : No warppoints
Format settings, Matrix          : Custom
Codec ID                         : XVID
Codec ID/Hint                    : XviD
Bit rate                         : 538 Kbps
Width                            : 576 pixels
Height                           : 240 pixels
Display aspect ratio             : 2.40:1
Frame rate                       : 23.976 fps
Color space                      : YUV
Chroma subsampling               : 4:2:0
Bit depth                        : 8 bits
Scan type                        : Progressive
Compression mode                 : Lossy
Bits/(Pixel*Frame)               : 0.162
Stream size                      : 564 MiB (81%)
Writing library                  : XviD 1.2.1 (UTC 2008-12-04)

Audio
ID                               : 1
Format                           : MPEG Audio
Format version                   : Version 1
Format profile                   : Layer 3
Mode                             : Joint stereo
Mode extension                   : MS Stereo
Codec ID                         : 55
Codec ID/Hint                    : MP3
Bit rate mode                    : Variable
Bit rate                         : 118 Kbps
Nominal bit rate                 : 128 Kbps
Channel(s)                       : 2 channels
Sampling rate                    : 48.0 KHz
Compression mode                 : Lossy
Stream size                      : 123 MiB (18%)
Alignment                        : Aligned on interleaves
Interleave, duration             : 24 ms (0.58 video frame)
Interleave, preload duration     : 156 ms
Writing library                  : LAME3.98r
Encoding settings                : -m j -V 4 -q 2 -lowpass 17 --abr 128
The Adventures of Tintin .2011.DVDSCR.XVID.Une- CM8/2011.DVDSCR.XVID.Une-CM8.nfo 3.157 KB
The Adventures of Tintin .2011.DVDSCR.XVID.Une- CM8/The Adventures of Tintin .2011.DVDSCR.XVID.Une- CM8.avi 1.237 GB
The Adventures of Tintin .2011.DVDSCR.XVID.Une- CM8/Torrent Downloaded From ExtraTorrent.com.txt 367 B
Gathering some info...

Register and log in Isohunt and see no captcha anymore!

4000 symbols left
Hash 599ce8830d176da164d1f7d2a28e432f79f2a006

Related torrents for "The Adventures of Tintin .2011.DVDSCR.XVID.Une- CM8"

Torrent search:

screener 2011