imdb
rating

6.2
Loosies

Loosies (2012)

Comedy, Drama, Romance

Full description

Loosies 2012 BDRip XviD-7o9

Size 897.57 MB   0 seeders     Added 2012-01-16 01:43:31

Stream torrent
Starting‥ You need BitLord! Get it from BitLord.com
To download or stream you need BitLord. Visit them at BitLord.com
Loosies 2012 BDRip XviD-7o9

Format                           : AVI
Format/Info                      : Audio Video Interleave
Format profile                   : OpenDML
Duration                         : 110 minutes
Overall bit rate                 : 1 206 Kbps
Writing application              : VirtualDubMod 1.5.10.2 (build 2542/release)
Writing library                  : VirtualDubMod build 2542/release


Video
ID                               : 0
Format                           : MPEG-4 Visual
Format profile                   : AdvancedSimple@L5
Format settings, BVOP            : Yes
Format settings, QPel            : No
Format settings, GMC             : No warppoints
Format settings, Matrix          : Default (H.263)
Muxing mode                      : Packed bitstream
Codec ID                         : XVID
Codec ID/Hint                    : XviD
Duration                         : 110 minutes
Bit rate                         : 1 010 Kbps
Width                            : 640 pixels
Height                           : 272 pixels
Display aspect ratio             : 2.35:1
Frame rate                       : 23.976 fps
Resolution                       : 24 bits
Colorimetry                      : 4:2:0
Scan type                        : Progressive
Bits/(Pixel*Frame)               : 0.242
Stream size                      : 962 MiB (84%)
Writing library                  : XviD 57

Audio
ID                               : 1
Format                           : MPEG Audio
Format version                   : Version 1
Format profile                   : Layer 3
Codec ID                         : 55
Codec ID/Hint                    : MP3
Duration                         : 110 minutes
Bit rate mode                    : Constant
Bit rate                         : 192 Kbps
Channel(s)                       : 2 channels
Sampling rate                    : 48.0 KHz
Resolution                       : 16 bits
Stream size                      : 183 MiB (16%)
Alignment                        : Aligned on interleaves
Interleave, duration             : 712 ms (17.08 video frames)
Interleave, preload duration     : 216 ms
Writing library                  : LAME3.98.2

http://www.imdb.com/title/tt1568337/

Source: DVD (perfect a/v/sync quality+filtered audio with additional 400% volume , sample is included)


How To Get Your Maxspeed (uTorrent)

Torrent Client - Preferences - Bandwidth - Number of connections - Set aprox. 500 for each 
Torrent Client - Preferences - BiTorrent - Protocol Encryption - Forced
Bandwidth Allocation - High (Set download/upload limit - Unlimited)
Stop Other Active Torrents - Enjoy and Seed at least 1:1 ratio	
Loosies 2012 BDRip XviD-7o9/Loosies 2012 BDRip XviD-7o9.avi 897.43 MB
Loosies 2012 BDRip XviD-7o9/Release.nfo 3.048 KB
Loosies 2012 BDRip XviD-7o9/Subs[ENG].srt 136.693 KB
Gathering some info...

Register and log in Isohunt and see no captcha anymore!

4000 symbols left
Hash 52470887e537d17a6b3d17866c01648ebf7a6247

Related torrents for "Loosies 2012 BDRip XviD-7o9"

Torrent search:

2012 bd