imdb
rating

7.4
Mission: Impossible – Ghost Protocol

Mission: Impossible – Ghost Protocol (2011)

Action, Adventure, Thriller

Full description

Mission Impossible-Ghost Protocol 2011 R5 DVDRip XviD AC3-26K

Size 672.705 MB   0 seeders     Added 2012-01-16 08:41:52

Stream torrent
Starting‥ You need BitLord! Get it from BitLord.com
To download or stream you need BitLord. Visit them at BitLord.com
Mission Impossible-Ghost Protocol
Video
ID                                       : 0
Format                                   : MPEG-4 Visual
Format profile                           : Advanced Simple@L5
Format settings, BVOP                    : 2
Format settings, QPel                    : No
Format settings, GMC                     : No warppoints
Format settings, Matrix                  : Default (H.263)
Muxing mode                              : Packed bitstream
Codec ID                                 : XVID
Codec ID/Hint                            : XviD
Duration                                 : 1h 32mn
Bit rate                                 : 2 295 Kbps
Width                                    : 720 pixels
Height                                   : 388 pixels
Display aspect ratio                     : 1.856
Frame rate                               : 25.000 fps
Color space                              : YUV
Chroma subsampling                       : 4:2:0
Bit depth                                : 8 bits
Scan type                                : Progressive
Compression mode                         : Lossy
Bits/(Pixel*Frame)                       : 0.329
Stream size                              : 1.49 GiB (83%)
Writing library                          : XviD 1.2.1 (UTC 2008-12-04)

Audio
ID                                       : 1
Format                                   : AC-3
Format/Info                              : Audio Coding 3
Mode extension                           : CM (complete main)
Codec ID                                 : 2000
Duration                                 : 1h 32mn
Bit rate mode                            : Constant
Bit rate                                 : 448 Kbps
Channel(s)                               : 6 channels
Channel positions                        : Front: L C R, Side: L R, LFE
Sampling rate                            : 48.0 KHz
Bit depth                                : 16 bits
Compression mode                         : Lossy
Stream size                              : 298 MiB (16%)
Alignment                                : Aligned on interleaves
Interleave, duration                     : 32 ms (0.80 video frame)
Interleave, preload duration             : 32 ms
Mission Impossible-Ghost Protocol 2011 DVDRiP XViD-Lebo;;movies;;In the 4th installment of the Mission Impossible series, Ethan Hunt and his team are racing against time to track down a dangerous terrorist named Hendricks, who has gained access to Russian nuclear launch codes and is planning a strike on the United States. An attempt by the team to stop him at the Kremlin ends in a disaster with an explosion causing severe destruction to the Kremlin and the IMF being implicated in the bombing forcing the President to invoke Ghost Protocol
Mission Impossible-Ghost Protocol 2011 R5 DVDRip XviD AC3-26K/2011 DVDRip XviD AC3-26K.nfo 2.562 KB
Mission Impossible-Ghost Protocol 2011 R5 DVDRip XviD AC3-26K/Mission Impossible-Ghost Protocol 2011 R5 DVDRip XviD AC3-26K.avi 672.702 MB
Mission Impossible-Ghost Protocol 2011 R5 DVDRip XviD AC3-26K/Torrent downloaded from Demonoid.me.txt 46 B
Gathering some info...

Register and log in Isohunt and see no captcha anymore!

4000 symbols left
Hash 5fad953f7ac13c98f452067f9cdf533900a1c58a

Related torrents for "Mission Impossible-Ghost Protocol 2011 R5 DVDRip XviD AC3-26K"

Torrent search:

dvdrip dvd 2011