imdb
rating

6.3
Johnny English Reborn

Johnny English Reborn (2011)

Action, Adventure, Comedy, Crime, Thriller

Full description
quality   telesync cam x264 h264

Johnny English Reborn 2011 R5 DVDRip XviD AC3-26K

Size 665.565 MB   0 seeders     Added 2012-01-16 09:00:22

Stream torrent
Starting‥ You need BitLord! Get it from BitLord.com
To download or stream you need BitLord. Visit them at BitLord.com
Johnny English Reborn
Video
ID                                       : 0
Format                                   : MPEG-4 Visual
Format profile                           : Advanced Simple@L5
Format settings, BVOP                    : 2
Format settings, QPel                    : No
Format settings, GMC                     : No warppoints
Format settings, Matrix                  : Default (H.263)
Muxing mode                              : Packed bitstream
Codec ID                                 : XVID
Codec ID/Hint                            : XviD
Duration                                 : 1h 32mn
Bit rate                                 : 2 295 Kbps
Width                                    : 720 pixels
Height                                   : 388 pixels
Display aspect ratio                     : 1.856
Frame rate                               : 25.000 fps
Color space                              : YUV
Chroma subsampling                       : 4:2:0
Bit depth                                : 8 bits
Scan type                                : Progressive
Compression mode                         : Lossy
Bits/(Pixel*Frame)                       : 0.329
Stream size                              : 1.49 GiB (83%)
Writing library                          : XviD 1.2.1 (UTC 2008-12-04)

Audio
ID                                       : 1
Format                                   : AC-3
Format/Info                              : Audio Coding 3
Mode extension                           : CM (complete main)
Codec ID                                 : 2000
Duration                                 : 1h 32mn
Bit rate mode                            : Constant
Bit rate                                 : 448 Kbps
Channel(s)                               : 6 channels
Channel positions                        : Front: L C R, Side: L R, LFE
Sampling rate                            : 48.0 KHz
Bit depth                                : 16 bits
Compression mode                         : Lossy
Stream size                              : 298 MiB (16%)
Alignment                                : Aligned on interleaves
Interleave, duration                     : 32 ms (0.80 video frame)
Interleave, preload duration             : 32 ms

Rowan Atkinson returns to the role of the accidental secret agent who doesn\'t know fear or danger in the comedy spy-thriller Johnny English Reborn. In his latest adventure, the most unlikely intelligence officer in Her Majesty\'s Secret Service must stop a group of international assassins before they eliminate a world leader and cause global chaos. In the years since MI-7\'s top spy vanished off the grid, he has been honing his unique skills in a remote region of Asia. But when his agency superiors learn of an attempt against the Chinese premier\'s life, they must hunt down the highly unorthodox agent. Now that the world needs him once again, Johnny English is back in action. With one shot at redemption, he must employ the latest in hi-tech gadgets to unravel a web of conspiracy that runs throughout the KGB, CIA and even MI-7
Johnny English Reborn 2011 R5 DVDRip XviD AC3-26K/2011 DVDRip XviD AC3-26K.nfo 2.562 KB
Johnny English Reborn 2011 R5 DVDRip XviD AC3-26K/Johnny English Reborn 2011 R5 DVDRip XviD AC3-26K.avi 665.562 MB
Johnny English Reborn 2011 R5 DVDRip XviD AC3-26K/Torrent downloaded from Demonoid.me.txt 46 B
Gathering some info...

Register and log in Isohunt and see no captcha anymore!

4000 symbols left
Hash e747902bd346c3001ac5fa4cf3048a91de071242

Related torrents for "Johnny English Reborn 2011 R5 DVDRip XviD AC3-26K"

Torrent search:

dvdrip english dvd 2011