imdb
rating

7.1
The Ides of March

The Ides of March (2011)

Drama

Full description

The Ides of March .2011 R5 DVDRip XviD AC3 -26K

Size 667.605 MB   0 seeders     Added 2012-01-17 13:05:07

Stream torrent
Starting‥ You need BitLord! Get it from BitLord.com
To download or stream you need BitLord. Visit them at BitLord.com
Sources:
DVDR

Notes:
Encoded the video added a few filters to make it look nice :)


Greetz:
To all the people who have helped me :P you know who you are

Anything to offer email us @: 26k@hushmail.me

Video
ID                                       : 0
Format                                   : MPEG-4 Visual
Format profile                           : Advanced Simple@L5
Format settings, BVOP                    : 2
Format settings, QPel                    : No
Format settings, GMC                     : No warppoints
Format settings, Matrix                  : Default (H.263)
Muxing mode                              : Packed bitstream
Codec ID                                 : XVID
Codec ID/Hint                            : XviD
Bit rate                                 : 2 295 Kbps
Width                                    : 720 pixels
Height                                   : 388 pixels
Display aspect ratio                     : 1.856
Frame rate                               : 25.000 fps
Color space                              : YUV
Chroma subsampling                       : 4:2:0
Bit depth                                : 8 bits
Scan type                                : Progressive
Compression mode                         : Lossy
Bits/(Pixel*Frame)                       : 0.329
Stream size                              : 1.49 GiB (83%)
Writing library                          : XviD 1.2.1 (UTC 2008-12-04)

Audio
ID                                       : 1
Format                                   : AC-3
Format/Info                              : Audio Coding 3
Mode extension                           : CM (complete main)
Codec ID                                 : 2000
Bit rate mode                            : Constant
Bit rate                                 : 448 Kbps
Channel(s)                               : 6 channels
Channel positions                        : Front: L C R, Side: L R, LFE
Sampling rate                            : 48.0 KHz
Bit depth                                : 16 bits
Compression mode                         : Lossy
Stream size                              : 298 MiB (16%)
Alignment                                : Aligned on interleaves
Interleave, duration                     : 128 ms (0.80 video frame)
Interleave, preload duration             : 128 ms
The Ides of March .2011 R5 DVDRip XviD AC3 -26K/2011 R5 DVDRip XviD AC3 -26K.nfo 2.562 KB
The Ides of March .2011 R5 DVDRip XviD AC3 -26K/The Ides of March .2011 R5 DVDRip XviD AC3 -26K.avi 667.602 MB
The Ides of March .2011 R5 DVDRip XviD AC3 -26K/Torrent downloaded from Demonoid.me.txt 46 B
Gathering some info...

Register and log in Isohunt and see no captcha anymore!

4000 symbols left
Hash 0ac1c94b32c4057de862bb753dd14c3ab80cee18

Related torrents for "The Ides of March .2011 R5 DVDRip XviD AC3 -26K"

Torrent search:

dvdrip dvd 2011