imdb
rating

7.4
Mission: Impossible – Ghost Protocol

Mission: Impossible – Ghost Protocol (2011)

Action, Adventure, Thriller

Full description

Mission Impossible-Ghost Protocol 2011 DVDRiP AC3 XViD -nLiBRA

Size 1.111 GB   0 seeders     Added 2012-01-17 19:24:24

Stream torrent
Starting‥ You need BitLord! Get it from BitLord.com
To download or stream you need BitLord. Visit them at BitLord.com
Format                           : AVI
Format/Info                      : Audio Video Interleave
Format profile                   : OpenDML
Overall bit rate                 : 1 799 Kbps
Writing application              : VirtualDubMod 1.5.10.2 (build 2542/release)
Writing library                  : VirtualDubMod build 2542/release
Original source form             : MAX TORRENTZ
Copyright                        : SIGISMUNT

Video
ID                               : 0
Format                           : MPEG-4 Visual
Format profile                   : AdvancedSimple@L5
Format settings, BVOP            : Yes
Format settings, QPel            : No
Format settings, GMC             : No warppoints
Format settings, Matrix          : Custom
Codec ID                         : XVID
Codec ID/Hint                    : XviD
Bit rate                         : 1 603 Kbps
Width                            : 720 pixels
Height                           : 304 pixels
Display aspect ratio             : 2.35:1
Frame rate                       : 23.976 fps
Resolution                       : 24 bits
Colorimetry                      : 4:2:0
Scan type                        : Progressive
Bits/(Pixel*Frame)               : 0.305
Stream size                      : 1.26 GiB (89%)
Writing library                  : XviD 58

Audio
ID                               : 1
Format                           : MPEG Audio
Format version                   : Version 1
Format profile                   : Layer 3
Codec ID                         : 50
Codec ID/Hint                    : MP1
Bit rate mode                    : Constant
Bit rate                         : 192 Kbps
Channel(s)                       : 2 channels
Sampling rate                    : 48.0 KHz
Resolution                       : 16 bits
Stream size                      : 155 MiB (11%)
Alignment                        : Aligned on interleaves
Interleave, duration             : 493 ms (11.82 video frames)
Interleave, preload duration     : 216 ms

Source: DVD (perfect a/v/sync quality,sample included)
This torrent is not seedbox supported,please seed it to the MAX
Mission Impossible-Ghost Protocol 2011 DVDRiP AC3 XViD -nLiBRA/2011.DVDRip.XviD.AC3-nLiBRA.nfo 6.361 KB
Mission Impossible-Ghost Protocol 2011 DVDRiP AC3 XViD -nLiBRA/Mission Impossible-Ghost Protocol 2011 DVDRiP AC3 XViD -nLiBRA.avi 1.111 GB
Mission Impossible-Ghost Protocol 2011 DVDRiP AC3 XViD -nLiBRA/Torrent downloaded from Demonoid.me.txt 46 B
Gathering some info...

Register and log in Isohunt and see no captcha anymore!

4000 symbols left
Hash 6bede3d34a4f6c3c0b752bdffcc44f9bb7ec8113

Related torrents for "Mission Impossible-Ghost Protocol 2011 DVDRiP AC3 XViD -nLiBRA"

Torrent search:

dvdrip 2011