imdb
rating

6.2
Tower Heist

Tower Heist (2011)

Action, Comedy

Full description
quality   bd cam telesync x264

Tower Heist .2011.BRRip.Xvid 1337x -Noir

Size 680.867 MB   0 seeders     Added 2012-01-18 21:59:26

Stream torrent
Starting‥ You need BitLord! Get it from 1BitLord.com
To download or stream you need BitLord. Visit them at BitLord.com
rEADNFO

FIRST 1 MINUTE 10 SECONDS FROM PREVIOUS CAM
MISSING 50 SECONDS AT 13 MINUTES 41 SECONDS

so here we are with a fixed version 
by popular demand as the other TS was a bit blur at the start ;)
readnfo is for the above ;)


iNFO

video
ID                               : 0
Format                           : MPEG-4 Visual
Format profile                   : Advanced Simple@L5
Format settings, BVOP            : 2
Format settings, QPel            : No
Format settings, GMC             : No warppoints
Format settings, Matrix          : Default (H.263)
Muxing mode                      : Packed bitstream
Codec ID                         : XVID
Codec ID/Hint                    : XviD
Bit rate                         : 2 064 Kbps
Width                            : 720 pixels
Height                           : 320 pixels
Display aspect ratio             : 2.25:1
Frame rate                       : 24.000 fps
Color space                      : YUV
Chroma subsampling               : 4:2:0
Bit depth                        : 8 bits
Scan type                        : Progressive
Compression mode                 : Lossy
Bits/(Pixel*Frame)               : 0.373
Stream size                      : 1.26 GiB (94%)
Writing library                  : XviD 64

audio
ID                               : 1
Format                           : MPEG Audio
Format version                   : Version 1
Format profile                   : Layer 3
Mode                             : Joint stereo
Mode extension                   : MS Stereo
Codec ID                         : 55
Codec ID/Hint                    : MP3
Bit rate mode                    : Constant
Bit rate                         : 128 Kbps
Channel(s)                       : 2 channels
Sampling rate                    : 44.1 KHz
Compression mode                 : Lossy
Stream size                      : 80.2 MiB (6%)
Alignment                        : Split accross interleaves
Interleave, duration             : 42 ms (1.00 video frame)
Writing library                  : LAME3.98r
Tower Heist .2011.BRRip.Xvid {1337x} -Noir/1337x.Org.txt 26 B
Tower Heist .2011.BRRip.Xvid {1337x} -Noir/Blazinseedboxes.com.txt 98 B
Tower Heist .2011.BRRip.Xvid {1337x} -Noir/Noir.nfo 5.029 KB
Gathering some info...

Register and log in Isohunt and see no captcha anymore!

4000 symbols left
Hash 14f676f64a9c388e9f2808350bb53a57fe6055e7

Related torrents for "Tower Heist .2011.BRRip.Xvid 1337x -Noir"

Torrent search:

bd 2011