Contraband.2012.TS.READNFO.XViD-HOPE

Size 1.083 GB   0 seeders     Added 2012-01-24 20:46:45

To download or stream you need BitLord. Visit them at BitLord.com
[IMG]image[/IMG]

Plot:
To protect his brother-in-law from a drug lord, a former smuggler heads to Panama to score millions of dollars in counterfeit bills.

IMDB:
www.imdb.com/title/tt1524137/

Information:
Format                           : AVI
Format/Info                      : Audio Video Interleave
File size                        : 1 013 MiB
Duration                         : 1h 42mn
Overall bit rate                 : 1 384 Kbps
Writing library                  : VirtualDub build 31536/release

Video
ID                               : 0
Format                           : MPEG-4 Visual
Format profile                   : Advanced Simple@L5
Format settings, BVOP            : 2
Format settings, QPel            : No
Format settings, GMC             : No warppoints
Format settings, Matrix          : Default (H.263)
Muxing mode                      : Packed bitstream
Codec ID                         : XVID
Codec ID/Hint                    : XviD
Duration                         : 1h 42mn
Bit rate                         : 1 247 Kbps
Width                            : 680 pixels
Height                           : 292 pixels
Display aspect ratio             : 2.35:1
Frame rate                       : 25.000 fps
Color space                      : YUV
Chroma subsampling               : 4:2:0
Bit depth                        : 8 bits
Scan type                        : Progressive
Compression mode                 : Lossy
Bits/(Pixel*Frame)               : 0.251
Stream size                      : 913 MiB (90%)
Writing library                  : XviD 64

Audio
ID                               : 1
Format                           : MPEG Audio
Format version                   : Version 1
Format profile                   : Layer 3
Codec ID                         : 55
Codec ID/Hint                    : MP3
Duration                         : 1h 41mn
Bit rate mode                    : Constant
Bit rate                         : 128 Kbps
Channel(s)                       : 2 channels
Sampling rate                    : 48.0 KHz
Compression mode                 : Lossy
Delay relative to video          : 9ms
Stream size                      : 93.3 MiB (9%)
Alignment                        : Split accross interleaves
Interleave, duration             : 40 ms (1.00 video frame)
Interleave, preload duration     : 500 ms

Screene:
[IMG]image[/IMG]
Contraband 2012 TS READNFO XViD - HOPE.rar 1.083 GB
Gathering some info...

Register and log in Isohunt and see no captcha anymore!

4000 symbols left
Hash ea04c2433dccae14bdfbe21b1e4787567439ab6b