We Bought A Zoo 2011 CAM NEWSRC XViD - HOPE

Size 1.486 GB   0 seeders     Added 2012-01-25 12:15:30

To download or stream you need BitLord. Visit them at BitLord.com
We Bought A Zoo 2011 CAM NEWSRC XViD - HOPE

[IMG]image[/IMG]

Plot: 
Set in Southern California, a father moves his young family to the countryside to renovate and re-open a struggling zoo. 

IMDB: 
http://www.imdb.com/title/tt1389137/

Information:
Format                           : AVI
Format/Info                      : Audio Video Interleave
File size                        : 1.37 GiB
Duration                         : 1h 58mn
Overall bit rate                 : 1 655 Kbps

Video
ID                               : 0
Format                           : MPEG-4 Visual
Format profile                   : Advanced Simple@L5
Format settings, BVOP            : 2
Format settings, QPel            : No
Format settings, GMC             : No warppoints
Format settings, Matrix          : Default (H.263)
Muxing mode                      : Packed bitstream
Codec ID                         : XVID
Codec ID/Hint                    : XviD
Duration                         : 1h 58mn
Bit rate                         : 1 454 Kbps
Width                            : 720 pixels
Height                           : 400 pixels
Display aspect ratio             : 16:9
Frame rate                       : 29.970 fps
Color space                      : YUV
Chroma subsampling               : 4:2:0
Bit depth                        : 8 bits
Scan type                        : Progressive
Compression mode                 : Lossy
Bits/(Pixel*Frame)               : 0.168
Stream size                      : 1.20 GiB (88%)
Writing library                  : XviD 64

Audio
ID                               : 1
Format                           : AC-3
Format/Info                      : Audio Coding 3
Mode extension                   : CM (complete main)
Codec ID                         : 2000
Duration                         : 1h 58mn
Bit rate mode                    : Constant
Bit rate                         : 192 Kbps
Channel(s)                       : 2 channels
Channel positions                : Front: L R
Sampling rate                    : 44.1 KHz
Bit depth                        : 16 bits
Compression mode                 : Lossy
Stream size                      : 163 MiB (12%)
Alignment                        : Aligned on interleaves
Interleave, duration             : 70 ms (2.09 video frames)
Interleave, preload duration     : 208 ms

Screene:
[IMG]image[/IMG]
[IMG]image[/IMG]
[IMG]image[/IMG]
[IMG]image[/IMG]
[IMG]image[/IMG]
[IMG]image[/IMG]
[IMG]image[/IMG]
[IMG]image[/IMG]
We Bought A Zoo 2011 CAM NEWSRC XViD - HOPE.rar 1.486 GB
Gathering some info...

Register and log in Isohunt and see no captcha anymore!

4000 symbols left
Hash 0dd086ca962fb6b3507f7952e2dfd94f794b158f