Contraband.FUBAR.2012

Size 1.289 GB   0 seeders     Added 2012-01-27 15:47:05

To download or stream you need BitLord. Visit them at BitLord.com
[img]image[/img]
[code]
Contraband 2012 TS Xvid AC3-26K

Imdb:
http://www.imdb.com/title/tt1524137/

Plot:
To protect his brother-in-law from a drug lord, a former smuggler heads to Panama to score millions of dollars in counterfeit bills.

Sources:
VIDEO RUSSIAN- THNXS!!
Audio-Unknown...

Notes:
VERY GOOD LINE FROM UNKNOWN...THNXS...the russian vidoe as usaul is very dark!!.. so here is my attempt added few filters to the video to make it look nice...

Greetz:
Xtreme Encode|FYA|ILLUMANTI|CM8|RX|VISION|HDSCENE|NIGHTMAREZ|xTriLL|DTRG|CRYS|REMIXHD|BIDA|RX|REFILL|INSPiRAL|SIC
To all the people who have helped me :P you know who you are

Anything to offer email us @: 26k@hushmail.me

Video
ID                                       : 0
Format                                   : MPEG-4 Visual
Format profile                           : Advanced Simple@L5
Format settings, BVOP                    : 2
Format settings, QPel                    : No
Format settings, GMC                     : No warppoints
Format settings, Matrix                  : Default (H.263)
Codec ID                                 : XVID
Codec ID/Hint                            : XviD
Duration                                 : 1h 42mn
Bit rate                                 : 1 500 Kbps
Width                                    : 680 pixels
Height                                   : 292 pixels
Display aspect ratio                     : 2.35:1
Frame rate                               : 25.000 fps
Color space                              : YUV
Chroma subsampling                       : 4:2:0
Bit depth                                : 8 bits
Scan type                                : Progressive
Compression mode                         : Lossy
Bits/(Pixel*Frame)                       : 0.302
Stream size                              : 1.07 GiB (90%)
Writing library                          : XviD 63

Audio
ID                                       : 1
Format                                   : AC-3
Format/Info                              : Audio Coding 3
Mode extension                           : CM (complete main)
Codec ID                                 : 2000
Duration                                 : 1h 41mn
Bit rate mode                            : Constant
Bit rate                                 : 160 Kbps
Channel(s)                               : 2 channels
Channel positions                        : Front: L R
Sampling rate                            : 48.0 KHz
Bit depth                                : 16 bits
Compression mode                         : Lossy
Stream size                              : 117 MiB (10%)
Alignment                                : Aligned on interleaves
Interleave, duration                     : 32 ms (0.80 video frame)

[/code]

Screens:
[img]image[/img]
[img]image[/img]
[img]image[/img]
[img]image[/img]
[img]image[/img]

[img]image[/img]
Thank you smallz for banner!
Contraband.FUBAR.2012/Contraband.FUBAR.2012.rar 1.289 GB
Contraband.FUBAR.2012/Free_Pass_here.url 118 B
Contraband.FUBAR.2012/sample.avi 773.143 KB
Gathering some info...

Register and log in Isohunt and see no captcha anymore!

4000 symbols left
Hash 07cb55ba33e9714391dcfc00f5e1d90a7ccf5758