imdb
rating

7.1
We Bought a Zoo

We Bought a Zoo (2011)

Comedy, Drama, Family

Full description

We Bought a Zoo 2011 DvDRip XviD Ac3 Feel-Free

Size 1.113 GB   0 seeders     Added 2012-01-28 19:21:32

Stream torrent
Starting‥ You need BitLord! Get it from BitLord.com
To download or stream you need BitLord. Visit them at BitLord.com
Genre:Action | Adventure | Fantasy
Language:English
IMDb:http://www.imdb.com/title/tt1734582/
Source:1080p BluRay x264-Japhson Thanks!
Encoder:Tony

Format : AVI
Format/Info : Audio Video Interleave
File size : 1GiB
Duration : 1h 41mn
Overall bit rate : 1 670 Kbps

Video
ID : 0
Format : MPEG-4 Visual
Format profile : Advanced Simple@L5
Format settings, BVOP : 1
Format settings, QPel : No
Format settings, GMC : No warppoints
Format settings, Matrix : Default (H.263)
Codec ID : XVID
Codec ID/Hint : XviD
Duration : 1h 41mn
Bit rate : 1 213 Kbps
Width : 640 pixels
Height : 360 pixels
Display aspect ratio : 16:9
Frame rate : 23.976 fps
Color space : YUV
Chroma subsampling : 4:2:0
Bit depth : 8 bits
Scan type : Progressive
Compression mode : Lossy
Bits/(Pixel*Frame) : 0.220
Stream size : 883 MiB (73%)
Writing library : XviD 1.2.1 (UTC 2008-12-04)

Audio
ID : 1
Format : AC-3
Format/Info : Audio Coding 3
Mode extension : CM (complete main)
Codec ID : 2000
Duration : 1h 41mn
Bit rate mode : Constant
Bit rate : 448 Kbps
Channel(s) : 6 channels
Channel positions : Front: L C R, Side: L R, LFE
Sampling rate : 48.0 KHz
Bit depth : 16 bits
Compression mode : Lossy
Stream size : 326 MiB (27%)
Alignment : Aligned on interleaves
Interleave, duration : 42 ms (1.00 video frame)
Interleave, preload duration : 512 ms
We Bought a Zoo 2011 DvDRip XviD Ac3 Feel-Free/subs/2011 DvDRip XviD Ac3 Feel-Free.srt 115.236 KB
We Bought a Zoo 2011 DvDRip XviD Ac3 Feel-Free/Torrent downloaded from extratorrent.com.txt 85 B
We Bought a Zoo 2011 DvDRip XviD Ac3 Feel-Free/Torrent Seeded & Tracked by Novalayer.com.txt 167 B
Gathering some info...

Register and log in Isohunt and see no captcha anymore!

4000 symbols left
Hash 7a3c430245d1f2eb3ec50574d87d8fbd90df0c4d

Related torrents for "We Bought a Zoo 2011 DvDRip XviD Ac3 Feel-Free"

Torrent search:

dvdrip 2011