imdb
rating

6.2
Loosies

Loosies (2012)

Comedy, Drama, Romance

Full description

Loosies 2012 DVDSCR XviD - ZOMBiES

Size 1.342 GB   0 seeders     Added 2012-01-30 09:24:10

Stream torrent
Starting‥ You need BitLord! Get it from BitLord.com
To download or stream you need BitLord. Visit them at BitLord.com

2012 DVDSCR XviD - ZOMBiES


Format                           : AVI
Format/Info                      : Audio Video Interleave
Format profile                   : OpenDML
File size                        : 1.47 GiB
Duration                         : 1h 37mn
Overall bit rate                 : 2 151 Kbps
Writing application              : VirtualDubMod 1.5.10.2 (build 2542/release)
Writing library                  : VirtualDubMod build 2542/release
Original source form             : MAX TORRENTZ
Copyright                        : SIGISMUNT

Video
ID                               : 0
Format                           : MPEG-4 Visual
Format profile                   : AdvancedSimple@L5
Format settings, BVOP            : Yes
Format settings, QPel            : No
Format settings, GMC             : No warppoints
Format settings, Matrix          : Custom
Codec ID                         : XVID
Codec ID/Hint                    : XviD
Duration                         : 1h 37mn
Bit rate                         : 1 950 Kbps
Width                            : 672 pixels
Height                           : 288 pixels
Display aspect ratio             : 2.35:1
Frame rate                       : 29.970 fps
Resolution                       : 24 bits
Colorimetry                      : 4:2:0
Scan type                        : Progressive
Bits/(Pixel*Frame)               : 0.336
Stream size                      : 1.33 GiB (91%)
Writing library                  : XviD 1.2.1 (UTC 2008-12-04)

Audio
ID                               : 1
Format                           : MPEG Audio
Format version                   : Version 1
Format profile                   : Layer 3
Codec ID                         : 55
Codec ID/Hint                    : MP3
Duration                         : 1h 37mn
Bit rate mode                    : Constant
Bit rate                         : 192 Kbps
Channel(s)                       : 2 channels
Sampling rate                    : 48.0 KHz
Resolution                       : 16 bits
Stream size                      : 134 MiB (9%)
Alignment                        : Aligned on interleaves
Interleave, duration             : 24 ms (0.72 video frame)
Interleave, preload duration     : 192 ms
 

Source: DVDRip (perfect a/v/sync quality-original source resynced,sample included)
This torrent is not seedbox supported,please seed it to the MAX

Uploader Note: Same as harry potter today released dvdrip video is little
grainy but is more than watchable-similar to a classic dvdrip encode,see sample
and download it like this if you don\'t want to wait about 1 month more for another
sources like hd bluray/etc

Note:If you have something to offer as early releases,seedboxes,links,accounts,etc
please contact us on piratepedia[@]msn/gmail.com or our website torentz 3xforum ro


How To Get Your Maxspeed (uTorrent)

Torrent Client - Preferences - Bandwidth - Number of connections - Set aprox. 500 for each 
Torrent Client - Preferences - BiTorrent - Protocol Encryption - Forced
Bandwidth Allocation - High (Set download/upload limit - Unlimited)
Stop Other Active Torrents - Start downloading and wait for connections.
Enjoy and Seed for at least 1:1 ratio. Don\'t forget to say thanks/leave reviews.
Before downloading you should check/google search sample \"release name\"\"sample\".
Greets to all actual/future p2p/scene QUALITY groups and affiliate websites.
Don\'t trust IMDb robot or bad ratings,always watch some trailers first.
Ignore stupid comments/fake/mislabeled/no-DVDrips/CAM/TS/RAR uploads.
Please spread this release/torrent to your friends/forums/etc.
If you need translation subs visit some subtitles sites.
Report if you see online streaming or other spam links.
Recommended movie player wmPLAYER.
Loosies 2012 DVDSCR XviD - ZOMBiES/Loosies 2012 DVDSCR XviD - ZOMBiES.avi 1.342 GB
Loosies 2012 DVDSCR XviD - ZOMBiES/Subs Rus.srt 66.476 KB
Loosies 2012 DVDSCR XviD - ZOMBiES/Torrent downloaded from Demonoid.me.txt 46 B
Gathering some info...

Register and log in Isohunt and see no captcha anymore!

4000 symbols left
Hash ef72db28c28858e7f67231079c5b89cc954da5b9

Related torrents for "Loosies 2012 DVDSCR XviD - ZOMBiES"

Torrent search:

screener 2012