9 - Shane Acker (2009) [XviD - Ita Mp3] [TNT Village]

Size 714.408 MB   0 seeders     Added 2012-02-05 18:30:31

Stream torrent
Starting‥ You need BitLord! Get it from BitLord.com
10
To download or stream you need BitLord. Visit them at BitLord.com
9 - Shane Acker (2009) [XviD - Ita Mp3] [TNT Village]

[url=http://forum.tntvillage.scambioetico.org/tntforum/index.php?showtopic=280801].: Scheda Originale :.[/url]

.: Trama :.

9 si svolge in un futuro lontano (caratterizzato però in modo molto suggestivo da una tecnologia che ricorda l'industria bellica anni 40) in cui nessuna forma di vita esiste più sulla terra in seguito alla battaglia apocalittica tra macchine ed esseri umani. Una bambola di pezza si risveglia in un laboratorio e subito scopre che esistono suoi simili che vivono nascosti poco lontano. Le bambole hanno diversi caratteri e i loro nomi sono i numeri che hanno segnati sulla loro schiena. Il gruppo è composto da 1, il capo autoimposto del gruppo, veterano di guerra dai modi prepotenti; 2, un vecchio inventore; 5, un meccanico con un occhio solo; 6, un oracolo che dipinge all'infinito lo stesso simbolo; 7, una guerriera valorosa e 8, un guerriero molto grosso che, a differenza delle altre bambole, ha il numero indicato sulla spalla anziché sulla schiena. Nel gruppo compaiono anche due bambole gemelle, 3 e 4, abili a catalogare ogni cosa e che indossano sempre un cappuccio. L'intraprendenza di 9 e la tenacia di 7 riusciranno a far superare al gruppo le limitazioni di 1, a scoprire i segreti del passato e le dinamiche del nuovo mondo in modo da portare la storia su altri binari. Nel film vi sono varie situazioni molto simili all'omonimo cortometraggio, dal quale il film prende spunto.

.: Locandina :.

[img]image[/img]

.: Scheda :.

[b]Titolo originale: [/b]9
[b]Anno: [/b]2009
[b]Genere: [/b]Animazione
[b]Durata approssimativa: [/b]79 minuti

.: Screenshot :.

[URL=http://www.imagebam.com/image/cc4ff7167634147][IMG]image[/IMG][/URL] [URL=http://www.imagebam.com/image/0f21f2167634163][IMG]image[/IMG][/URL] [URL=http://www.imagebam.com/image/02cace167634173][IMG]image[/IMG][/URL]
========================================

.: Dati tecnici del file :.

General
Complete name                            : 9.avi
Format                                   : AVI
Format/Info                              : Audio Video Interleave
File size                                : 681 MiB
Duration                                 : 1h 19mn
Overall bit rate mode                    : Variable
Overall bit rate                         : 1 200 Kbps
Writing application                      : VirtualDubMod 1.5.10.2 (build 2542/release)
Writing library                          : VirtualDubMod build 2542/release

Video
ID                                       : 0
Format                                   : MPEG-4 Visual
Format profile                           : Advanced Simple@L5
Format settings, BVOP                    : 3
Format settings, QPel                    : No
Format settings, GMC                     : No warppoints
Format settings, Matrix                  : Default (H.263)
Codec ID                                 : XVID
Codec ID/Hint                            : XviD
Duration                                 : 1h 19mn
Bit rate                                 : 1 061 Kbps
Width                                    : 624 pixels
Height                                   : 336 pixels
Display aspect ratio                     : 1.857
Frame rate                               : 23.976 fps
Color space                              : YUV
Chroma subsampling                       : 4:2:0
Bit depth                                : 8 bits
Scan type                                : Progressive
Compression mode                         : Lossy
Bits/(Pixel*Frame)                       : 0.211
Stream size                              : 602 MiB (88%)
Writing library                          : XviD 1.2.1 (UTC 2008-12-04)

Audio
ID                                       : 1
Format                                   : MPEG Audio
Format version                           : Version 1
Format profile                           : Layer 3
Mode                                     : Joint stereo
Mode extension                           : MS Stereo
Codec ID                                 : 55
Codec ID/Hint                            : MP3
Duration                                 : 1h 19mn
Bit rate mode                            : Variable
Bit rate                                 : 128 Kbps
Channel(s)                               : 2 channels
Sampling rate                            : 48.0 KHz
Compression mode                         : Lossy
Stream size                              : 71.6 MiB (11%)
Alignment                                : Aligned on interleaves
Interleave, duration                     : 24 ms (0.58 video frame)
Interleave, preload duration             : 146 ms
Writing library                          : LAME3.90.
Encoding settings                        : -m j -V 4 -q 2 -lowpass 17.6 --abr 128
9.avi 714.408 MB
Gathering some info...

Register and log in Isohunt and see no captcha anymore!

4000 symbols left
Hash cbee9784efaf408485a0744b8e64ddea539f0cd2

Related torrents for "9 - Shane Acker (2009) [XviD - Ita Mp3] [TNT Village]"

Torrent search:

2009 italian