imdb
rating

6.8
Safe House

Safe House (2012)

Action, Crime, Mystery, Thriller

Full description

Safe.House.2012.R5.XviD.limitED

Size 666.575 MB   0 seeders     Added 2012-02-10 01:50:37

Stream torrent
Starting‥ You need BitLord! Get it from BitLord.com
To download or stream you need BitLord. Visit them at BitLord.com
Safe.House.2012.R5.XVID.limitED

Video: 720x304 @bitrate 1700 2pass 
Audio: English AC3 5.1 @448 

http://www.imdb.com/title/tt1599348/ 

General Complete name : Safe.House.2012.R5.XVID.limitED.avi 
Format : AVI Format
Info : Audio Video Interleave 
File size : 699 MB 
Duration : 115 min 
Overall bit rate : 2 149 Kbps 
Writing application : Nandub v1.0rc2 
Writing library : Nandub build 1853/release 
Video ID : 0 
Format : MPEG-4 Visual 
Format profile : Advanced Simple@L5 
Format settings, BVOP : 2 
Format settings, QPel : Yes 
Format settings, GMC : No warppoints 
Format settings, Matrix : Default (H.263) 
Muxing mode : Packed bitstream Codec ID : XVID Codec ID/Hint : XviD 
Duration : 1h 48mn 
Bit rate : 1 691 Kbps 
Width : 720 pixels 
Height : 304 pixels 
Display aspect ratio : 2.35:1 
Frame rate : 25.000 fps 
Color space : YUV Chroma subsampling : 4:2:0 Bit depth : 8 bits 
Scan type : Progressive 
Compression mode : Lossy Bits/(Pixel*Frame) : 0.309 Stream size : 1.28 GiB (79%) Writing library : XviD 1.2.1 (UTC 2008-12-04) Audio ID : 1 Format : AC-3 Format/Info : Audio Coding 3 Mode extension : CM (complete main) Codec ID : 2000 
Duration : 1h 48mn 
Bit rate mode : Constant Bit rate : 448 Kbps 
Channel(s) : 6 channels 
Channel positions : Front: L C R, 
Side: L R, LFE Sampling rate : 48.0 KHz Bit depth : 16 bits 
Compression mode : Lossy Delay relative to video : 50ms Stream size : 348 MiB (21%) 
Alignment : Split accross interleaves Interleave, duration : 40 ms (1.00 video frame) Interleave, preload duration : 500 ms 



Plot: A young CIA agent is tasked with looking after a fugitive in a safe house. But when the safe house is attacked, he finds himself on the run with his charge. 

Cast: Denzel Washington ... Tobin Frost 
Ryan Reynolds ... Matt Weston 
Vera Farmiga ... Catherine Linklater 



Screens: 

image 
image 
image 
image
Safe.House.2012.R5.XVID.limitED/Safe.House.2012.R5.XVID.limitED.avi 666.573 MB
Safe.House.2012.R5.XVID.limitED/nfo.txt 2.108 KB
Gathering some info...

Register and log in Isohunt and see no captcha anymore!

4000 symbols left
Hash 4c22f42eab12b5c5ab80db4e773f4782bbc7e0fd

Related torrents for "Safe.House.2012.R5.XviD.limitED"

Torrent search:

2012 dvd