The Three Musketeers (2011) DVDRip XviD-MAXSPEED

Size 1.685 GB   0 seeders     Added 2012-02-11 12:35:15

To download or stream you need BitLord. Visit them at BitLord.com
The Three Musketeers (2011) DVDRip XviD-MAX

Screens:
 
image
 
image
 
image
 
image

ScreenCaps:
 
image

The Three Musketeers (2011) DVDRip XviD-MAX
Format                           : AVI
Format/Info                      : Audio Video Interleave
Format profile                   : OpenDML
File size                        : 1.56 GiB
Duration                         : 1h 50mn
Overall bit rate                 : 2 025 Kbps
Writing application              : VirtualDubMod 1.5.10.2 (build 2542/release)
Writing library                  : VirtualDubMod build 2542/release
Original source form             : MAX TORRENTZ
Copyright                        : SIGISMUNT

Video
ID                               : 0
Format                           : MPEG-4 Visual
Format profile                   : AdvancedSimple@L5
Format settings, BVOP            : Yes
Format settings, QPel            : No
Format settings, GMC             : No warppoints
Format settings, Matrix          : Custom
Muxing mode                      : Packed bitstream
Codec ID                         : XVID
Codec ID/Hint                    : XviD
Duration                         : 1h 50mn
Bit rate                         : 1 635 Kbps
Width                            : 720 pixels
Height                           : 304 pixels
Display aspect ratio             : 2.35:1
Frame rate                       : 23.976 fps
Resolution                       : 24 bits
Colorimetry                      : 4:2:0
Scan type                        : Progressive
Bits/(Pixel*Frame)               : 0.312
Stream size                      : 1.26 GiB (81%)
Writing library                  : XviD 58

Audio
ID                               : 1
Format                           : AC-3
Format/Info                      : Audio Coding 3
Codec ID                         : 2000
Duration                         : 1h 50mn
Bit rate mode                    : Constant
Bit rate                         : 384 Kbps
Channel(s)                       : 6 channels
Channel positions                : Front: L C R, Surround: L R, LFE
Sampling rate                    : 48.0 KHz
Stream size                      : 304 MiB (19%)
Alignment                        : Aligned on interleaves
Interleave, duration             : 64 ms (1.53 video frames)
Interleave, preload duration     : 192 ms
 
http://www.imdb.com/title/tt1509767/

Source: DVD (perfect a/v/sync quality,sample included)
This torrent is not seedbox supported,please seed it to the MAX
The Three Musketeers (2011) DVDRip XviD-MAXSPEED/The Three Musketeers (2011) DVDRip XviD-MAXSPEED.zip 1.674 GB
The Three Musketeers (2011) DVDRip XviD-MAXSPEED/sample.avi 10.442 MB
The Three Musketeers (2011) DVDRip XviD-MAXSPEED/screencaps.jpeg 689.829 KB
Gathering some info...

Register and log in Isohunt and see no captcha anymore!

4000 symbols left
Hash 3378a6db755bc09fd65d7844de9fe30a234b23ef