Captain America The First Avenger (2011) DVDRip XviD-MAXSPEED

Size 1.225 GB   0 seeders     Added 2012-02-12 05:16:34

To download or stream you need BitLord. Visit them at BitLord.com
Captain America The First Avenger (2011) DVDRip XviD-MAX

 image

Screens:
 
image
 
image
 
image
 
image

Alternative:
 
image
 
image
 
image
 
image

ScreenCaps:
 
image

Captain America The First Avenger (2011) DVDRip XviD-MAX
Format                           : AVI
Format/Info                      : Audio Video Interleave
Format profile                   : OpenDML
File size                        : 1.14 GiB
Duration                         : 2h 4mn
Overall bit rate                 : 1 312 Kbps
Writing application              : VirtualDubMod 1.5.10.2 (build 2542/release)
Writing library                  : VirtualDubMod build 2542/release
Original source form             : MAX TORRENTZ
Copyright                        : SIGISMUNT

Video
ID                               : 0
Format                           : MPEG-4 Visual
Format profile                   : AdvancedSimple@L5
Format settings, BVOP            : Yes
Format settings, QPel            : No
Format settings, GMC             : No warppoints
Format settings, Matrix          : Default (H.263)
Muxing mode                      : Packed bitstream
Codec ID                         : XVID
Codec ID/Hint                    : XviD
Duration                         : 2h 4mn
Bit rate                         : 1 116 Kbps
Width                            : 640 pixels
Height                           : 272 pixels
Display aspect ratio             : 2.35:1
Frame rate                       : 23.976 fps
Resolution                       : 24 bits
Colorimetry                      : 4:2:0
Scan type                        : Progressive
Bits/(Pixel*Frame)               : 0.267
Stream size                      : 991 MiB (85%)
Writing library                  : XviD 1.2.1 (UTC 2008-12-04)

Audio
ID                               : 1
Format                           : MPEG Audio
Format version                   : Version 1
Format profile                   : Layer 3
Codec ID                         : 55
Codec ID/Hint                    : MP3
Duration                         : 2h 4mn
Bit rate mode                    : Constant
Bit rate                         : 192 Kbps
Channel(s)                       : 2 channels
Sampling rate                    : 48.0 KHz
Resolution                       : 16 bits
Stream size                      : 171 MiB (15%)
Alignment                        : Aligned on interleaves
Interleave, duration             : 652 ms (15.64 video frames)
Interleave, preload duration     : 216 ms
Writing library                  : LAME3.96.1

Source: DVD (perfect a/v/sync quality,sample included)
This torrent is not seedbox supported,please seed it to the MAX
 
http://www.imdb.com/title/tt0458339/
 
Note:If you have something to offer as early releases,seedboxes,links,accounts,etc
please contact us on piratepedia[@]msn/gmail.com or our website torentz 3xforum ro

Captain America The First Avenger (2011) DVDRip XviD-MAX Torrent Free Download
Captain America The First Avenger (2011) DVDRip XviD-MAXSPEED/Captain America The First Avenger (2011) DVDRip XviD-MAXSPEED www.torentz.3xforum.ro.zip 1.217 GB
Captain America The First Avenger (2011) DVDRip XviD-MAXSPEED/Captain America The First Avenger (2011) DVDRip XviD-MAXSPEED.nfo 2.878 KB
Captain America The First Avenger (2011) DVDRip XviD-MAXSPEED/README.txt 125 B
Gathering some info...

Register and log in Isohunt and see no captcha anymore!

4000 symbols left
Hash bfecd27a67553f56f4aa56f3e1865cea616f97de

Related torrents for "Captain America The First Avenger (2011) DVDRip XviD-MAXSPEED"

Torrent search:

2011