imdb
rating

5.9
Red Tails

Red Tails (2012)

Action, Adventure, Drama, History, War

Full description

Red Tails 2012 RETAIL 720p BluRay x264 DTS-HDUSA

Size 1.369 GB   0 seeders     Added 2012-02-16 12:42:34

Stream torrent
Starting‥ You need BitLord! Get it from BitLord.com
10
To download or stream you need BitLord. Visit them at BitLord.com
Format/Info                      : Audio Video Interleave
Format profile                   : OpenDML
File size                        : 1.56 GiB
Duration                         : 1h 50mn
Overall bit rate                 : 2 025 Kbps
Writing application              : VirtualDubMod 1.5.10.2 (build 2542/release)
Writing library                  : VirtualDubMod build 2542/release
Original source form             : MAX TORRENTZ
Copyright                        : SIGISMUNT

Video
ID                               : 0
Format                           : MPEG-4 Visual
Format profile                   : AdvancedSimple@L5
Format settings, BVOP            : Yes
Format settings, QPel            : No
Format settings, GMC             : No warppoints
Format settings, Matrix          : Custom
Muxing mode                      : Packed bitstream
Codec ID                         : XVID
Codec ID/Hint                    : XviD
Duration                         : 1h 50mn
Bit rate                         : 1 635 Kbps
Width                            : 720 pixels
Height                           : 304 pixels
Display aspect ratio             : 2.35:1
Frame rate                       : 23.976 fps
Resolution                       : 24 bits
Colorimetry                      : 4:2:0
Scan type                        : Progressive
Bits/(Pixel*Frame)               : 0.312
Stream size                      : 1.26 GiB (81%)
Writing library                  : XviD 58

Audio
ID                               : 1
Format                           : AC-3
Format/Info                      : Audio Coding 3
Codec ID                         : 2000
Duration                         : 1h 50mn
Bit rate mode                    : Constant
Bit rate                         : 384 Kbps
Channel(s)                       : 6 channels
Channel positions                : Front: L C R, Surround: L R, LFE
Sampling rate                    : 48.0 KHz
Stream size                      : 304 MiB (19%)
Alignment                        : Aligned on interleaves
Interleave, duration             : 64 ms (1.53 video frames)
Red Tails 2012 RETAIL 720p BluRay x264 DTS-HDUSA/att-networks.com.txt 39 B
Red Tails 2012 RETAIL 720p BluRay x264 DTS-HDUSA/HDSceneRG.txt 103 B
Red Tails 2012 RETAIL 720p BluRay x264 DTS-HDUSA/Red Tails 2012 RETAIL 720p BluRay x264 DTS-HDUSA.avi 1.369 GB
Gathering some info...

Register and log in Isohunt and see no captcha anymore!

4000 symbols left
Hash 60f3c3e138d1e6a31442951bb1e10d79fc7d9fdb

Related torrents for "Red Tails 2012 RETAIL 720p BluRay x264 DTS-HDUSA"

Torrent search:

x264 hd 2012 bd