imdb
rating

7.6
The Impossible

The Impossible (2012)

Drama, Thriller

Full description
quality   x264 hdtv hd dvdrip screener bd

Mission Impossible-Ghost Protocol [2012]BRRip XviD-ETRG

Size 1.379 GB   0 seeders     Added 2012-02-16 22:57:25

Stream torrent
Starting‥ You need BitLord! Get it from BitLord.com
To download or stream you need BitLord. Visit them at BitLord.com
Format                           : AVI
Format/Info                      : Audio Video Interleave
Format profile                   : OpenDML
File size                        : 1 GiB
Duration                         : 1h 50mn
Overall bit rate                 : 1 698 Kbps
Writing application              : VirtualDubMod 1.5.10.2 (build 2542/release)
Writing library                  : VirtualDubMod build 2542/release
Original source form             : MAX TORRENTZ
Copyright                        : SIGISMUNT

Video
ID                               : 0
Format                           : MPEG-4 Visual
Format profile                   : AdvancedSimple@L5
Format settings, BVOP            : Yes
Format settings, QPel            : No
Format settings, GMC             : No warppoints
Format settings, Matrix          : Default (H.263)
Codec ID                         : XVID
Codec ID/Hint                    : XviD
Duration                         : 1h 50mn
Bit rate                         : 1 245 Kbps
Width                            : 720 pixels
Height                           : 384 pixels
Display aspect ratio             : 1.875
Frame rate                       : 23.976 fps
Resolution                       : 24 bits
Colorimetry                      : 4:2:0
Scan type                        : Progressive
Bits/(Pixel*Frame)               : 0.188
Stream size                      : 983 MiB (73%)
Writing library                  : XviD 1.2.1 (UTC 2008-12-04)

Audio
ID                               : 1
Format                           : AC-3
Format/Info                      : Audio Coding 3
Codec ID                         : 2000
Duration                         : 1h 50mn
Bit rate mode                    : Constant
Bit rate                         : 448 Kbps
Channel(s)                       : 6 channels
Channel positions                : Front: L C R, Surround: L R, LFE
Sampling rate                    : 48.0 KHz
Stream size                      : 354 MiB (26%)
Alignment                        : Aligned on interleaves
Interleave, duration             : 64 ms (1.53 video frames)


Mission Impossible-Ghost Protocol [2012]BRRip XviD-ETRG/Mission Impossible-Ghost Protocol [2012]BRRip XviD-ETRG.avi 1.379 GB
Mission Impossible-Ghost Protocol [2012]BRRip XviD-ETRG/Torrent downloaded from extratorrent.com.txt 85 B
Mission Impossible-Ghost Protocol [2012]BRRip XviD-ETRG/Torrent Seeded & Tracked by Novalayer.com.txt 167 B
Gathering some info...

Register and log in Isohunt and see no captcha anymore!

4000 symbols left
Hash e0cea384a2b7831e9febabe98ce7445c3c023112

Related torrents for "Mission Impossible-Ghost Protocol [2012]BRRip XviD-ETRG"

Torrent search:

2012 bd