imdb
rating

5.8
Journey 2: The Mysterious Island

Journey 2: The Mysterious Island (2012)

Action, Adventure, Science Fiction

Full description
quality   cam dvdrip bd screener

Journey 2 The Mysterious Island 2012 R5 XviD AC3-PRESTiGE

Size 1.695 GB   0 seeders     Added 2012-02-17 09:03:14

Stream torrent
Starting‥ You need BitLord! Get it from BitLord.com
8.3
To download or stream you need BitLord. Visit them at BitLord.com
[IMG]image[/IMG]\r\n\r\nInformation:\r\nFormat                           : Matroska\r\nFormat version                   : Version 2\r\nDuration                         : 1h 25mn\r\nOverall bit rate                 : 2 531 Kbps\r\nEncoded date                     : UTC 2012-02-15 19:10:38\r\nWriting application              : mkvmerge v5.2.1 ('A Far Off Place') built on\r\nJan  2 2012 23:21:10\r\nWriting library                  : libebml v1.2.3 + libmatroska v1.3.0\r\n\r\nVideo\r\nID                               : 1\r\nFormat                           : AVC\r\nFormat/Info                      : Advanced Video Codec\r\nFormat profile                   : High@L5.1\r\nFormat settings, CABAC           : Yes\r\nFormat settings, ReFrames        : 6 frames\r\nMuxing mode                      : Container profile=Unknown@0.0\r\nCodec ID                         : V_MPEG4/ISO/AVC\r\nBit rate                         : 2 401 Kbps\r\nWidth                            : 704 pixels\r\nHeight                           : 304 pixels\r\nDisplay aspect ratio             : 2.35:1\r\nFrame rate                       : 25.000 fps\r\nColor space                      : YUV\r\nChroma subsampling               : 4:2:0\r\nBit depth                        : 8 bits\r\nScan type                        : Progressive\r\nBits/(Pixel*Frame)               : 0.449\r\nStream size                      : 1.40 GiB (93%)\r\nWriting library                  : x264 core 120 r2164 da19765\r\n\r\nAudio\r\nID                               : 2\r\nFormat                           : MPEG Audio\r\nFormat version                   : Version 1\r\nFormat profile                   : Layer 3\r\nMode                             : Joint stereo\r\nMode extension                   : MS Stereo\r\nMuxing mode                      : Header stripping\r\nCodec ID                         : A_MPEG/L3\r\nCodec ID/Hint                    : MP3\r\nBit rate mode                    : Constant\r\nBit rate                         : 128 Kbps\r\nChannel(s)                       : 2 channels\r\nSampling rate                    : 44.1 KHz\r\nCompression mode                 : Lossy\r\nStream size                      : 78.0 MiB (5%)
Error when open the video .txt 237 B
Journey.2.The.Mysterious.Island.2012.R5.XviD.AC3-PRESTiGE.avi 1.695 GB
Gathering some info...

Register and log in Isohunt and see no captcha anymore!

4000 symbols left
Hash DF095A5FE27CD5A7BAA1138E2BF18B45D152594F

Related torrents for "Journey 2 The Mysterious Island 2012 R5 XviD AC3-PRESTiGE"

Torrent search:

2012 dvd