imdb
rating

6.2
Coriolanus

Coriolanus (2011)

Drama, Thriller

Full description
quality   dvdrip telesync bd dvd screener

Coriolanus 2012 R5 FULL LiNE XviD-REFiLL

Size 1.391 GB   0 seeders     Added 2012-02-17 23:33:11

Stream torrent
Starting‥ You need BitLord! Get it from BitLord.com
To download or stream you need BitLord. Visit them at BitLord.com
MediaInfo:
General
Format                           : AVI
Format/Info                      : Audio Video Interleave
File size                        : 1 GiB and above
Duration                         : 1h 59mn
Overall bit rate                 : 2 096 Kbps

Video
ID                               : 0
Format                           : MPEG-4 Visual
Format profile                   : Advanced Simple@L5
Format settings, BVOP            : 1
Format settings, QPel            : No
Format settings, GMC             : No warppoints
Format settings, Matrix          : Default (H.263)
Codec ID                         : XVID
Codec ID/Hint                    : XviD
Duration                         : 1h 59mn
Bit rate                         : 1 640 Kbps
Width                            : 720 pixels
Height                           : 384 pixels
Display aspect ratio             : 1.875
Frame rate                       : 23.976 fps
Color space                      : YUV
Chroma subsampling               : 4:2:0
Bit depth                        : 8 bits
Scan type                        : Progressive
Compression mode                 : Lossy
Bits/(Pixel*Frame)               : 0.247
Stream size                      : 1 GiB (78%)
Writing library                  : XviD 1.2.1 (UTC 2008-12-04)

Audio
ID                               : 1
Format                           : AC-3
Format/Info                      : Audio Coding 3
Mode extension                   : CM (complete main)
Codec ID                         : 2000
Duration                         : 1h 59mn
Bit rate mode                    : Constant
Bit rate                         : 448 Kbps
Channel(s)                       : 6 channels
Channel positions                : Front: L C R, Side: L R, LFE
Sampling rate                    : 48.0 KHz
Bit depth                        : 16 bits
Compression mode                 : Lossy
Stream size                      : 384 MiB (21%)
Alignment                        : Aligned on interleaves
Interleave, duration             : 64 ms (1.53 video frames)
Interleave, preload duration     : 192 ms
Title                            : VTS_01_1 T80 3_2ch 448Kbps DELAY 0ms


Note : Nothing unusual here, just ripped and encoded straight from the retail disc.      

Source: Our own

Enjoy!

Respects to T00NG0D, CM8, Rx, ELEKTRI4KA, PA, YeFsTe, MrRep and everyone in 
the struggle...RiP MU
Coriolanus 2012 R5 FULL LiNE XviD-REFiLL/Coriolanus 2012 R5 FULL LiNE XviD-REFiLL.avi 1.391 GB
Coriolanus 2012 R5 FULL LiNE XviD-REFiLL/Torrent Downloaded From ExtraTorrent.com.txt 367 B
Coriolanus 2012 R5 FULL LiNE XviD-REFiLL/Torrent downloaded from AhaShare.com.txt 59 B
Gathering some info...

Register and log in Isohunt and see no captcha anymore!

4000 symbols left
Hash 8175ae1462ae20cf9383b5c2f571b8b16ce74afb

Related torrents for "Coriolanus 2012 R5 FULL LiNE XviD-REFiLL"

Torrent search:

2012 dvd