imdb
rating

5.5
The Twilight Saga: Breaking Dawn - Part 2

The Twilight Saga: Breaking Dawn - Part 2 (2012)

Adventure, Drama, Fantasy, Romance

Full description
quality   dvdrip x264 hd bd screener

The Twilight Saga, Breaking Dawn 1 DVDrip English Klam

Size 1.659 GB   0 seeders     Added 2012-02-18 02:00:38

Stream torrent
Starting‥ You need BitLord! Get it from BitLord.com
7.9
To download or stream you need BitLord. Visit them at BitLord.com
With: Kristen Stewart, Robert Pattinson and Taylor Lautner

Na de bruiloft gaan Bella en Edward op huwelijksreis naar Rio De Janeiro, waar Bella tot haar schrik ontdekt zwanger te zijn. De familie van Edward is in shock door de situatie, die de fragiele band tussen de vampieren en weerwolven nog meer spanning bezorgt. Niemand weet wat te verwachten van deze onwaarschijnlijke zwangerschap. Ondertussen blijft ook de dreiging van de Volturi bestaan.

The Quileutes close in on expecting parents Edward and Bella, whose unborn child poses a threat to the Wolf Pack and the towns people of Forks.

http://www.imdb.com/title/tt1324999	

------------------------ Dutch Friends ------------------------
---------------------------------------------------------------
- Bezoek ook eens mijn vrienden op:  http://www.Film-Test.nl --
----- voor mijn Nederlandse Sync. ondertitels ---- en meer ----
------- http://www.Film-Test.nl ---- voor Films en meer -------
---------------------------------------------------------------

General:

Complete name                    : The Twilight Saga\The Twilight Saga, Breaking Dawn 1.avi
Format                           : AVI
Format/Info                      : Audio Video Interleave
File size                        : 1.54 GiB
Duration                         : 1h 57mn
Overall bit rate                 : 1 888 Kbps

Video:

Format                           : MPEG-4 Visual
Format profile                   : Simple@L3
Format settings, BVOP            : No
Format settings, QPel            : No
Format settings, GMC             : No warppoints
Format settings, Matrix          : Default (H.263)
Codec ID                         : XVID
Codec ID/Hint                    : XviD
Duration                         : 1h 57mn
Bit rate                         : 1 429 Kbps
Width                            : 720 pixels
Height                           : 304 pixels
Display aspect ratio             : 2.35:1
Frame rate                       : 23.976 fps
Color space                      : YUV
Chroma subsampling               : 4:2:0
Bit depth                        : 8 bits
Scan type                        : Progressive
Compression mode                 : Lossy
Bits/(Pixel*Frame)               : 0.272
Stream size                      : 1.17 GiB (76%)
Writing library                  : XviD 1.1.2 (UTC 2006-11-01)

Audio:

Format                           : AC-3
Format/Info                      : Audio Coding 3
Mode extension                   : CM (complete main)
Codec ID                         : 2000
Duration                         : 1h 57mn
Bit rate mode                    : Constant
Bit rate                         : 448 Kbps
Channel(s)                       : 6 channels
Channel positions                : Front: L C R, Side: L R, LFE
Sampling rate                    : 48.0 KHz
Bit depth                        : 16 bits
Compression mode                 : Lossy
Stream size                      : 375 MiB (24%)
Alignment                        : Aligned on interleaves
Interleave, duration             : 32 ms (0.77 video frame)
The Twilight Saga, Breaking Dawn 1/Cover/The Twilight Saga, Breaking Dawn 1.png 891.666 KB
The Twilight Saga, Breaking Dawn 1/Cover/www.Film-Test.nl.jpg 30.205 KB
The Twilight Saga, Breaking Dawn 1/New Dutch Site.txt 117 B
Gathering some info...

Register and log in Isohunt and see no captcha anymore!

4000 symbols left
Hash c3c36b2400423cb28f47b2c8b5d9d067b5300ef8

Related torrents for "The Twilight Saga, Breaking Dawn 1 DVDrip English Klam"

Torrent search:

dvdrip english