imdb
rating

7.2
The Muppets

The Muppets (2011)

Comedy, Music, Family

Full description

The Muppets 2011 DVDRip XviD FXG

Size 854.439 MB   0 seeders     Added 2012-02-20 05:02:28

Stream torrent
Starting‥ You need BitLord! Get it from BitLord.com
To download or stream you need BitLord. Visit them at BitLord.com
Muppets_2011_

Genre:Comedy | Drama | Family
Language:English
http://www.imdb.com/title/tt1204342/
Source:INSPiRAL Thanks!
Encoder:Tony

Format : AVI
Format/Info : Audio Video Interleave
File size : 1.23 GiB
Duration : 1h 42mn
Overall bit rate : 1 709 Kbps


Video
ID : 0
Format : MPEG-4 Visual
Format profile : Advanced Simple@L5
Format settings, BVOP : 1
Format settings, QPel : No
Format settings, GMC : No warppoints
Format settings, Matrix : Default (H.263)
Codec ID : XVID
Codec ID/Hint : XviD
Duration : 1h 42mn
Bit rate : 1 508 Kbps
Width : 640 pixels
Height : 344 pixels
Display aspect ratio : 1.860
Frame rate : 23.976 fps
Color space : YUV
Chroma subsampling : 4:2:0
Bit depth : 8 bits
Scan type : Progressive
Compression mode : Lossy
Bits/(Pixel*Frame) : 0.286
Stream size : 1.08 GiB (88%)
Writing library : XviD 1.2.1 (UTC 2008-12-04)

Audio
ID : 1
Format : AC-3
Format/Info : Audio Coding 3
Mode extension : CM (complete main)
Codec ID : 2000
Duration : 1h 42mn
Bit rate mode : Constant
Bit rate : 192 Kbps
Channel(s) : 2 channels
Channel positions : Front: L R
Sampling rate : 48.0 KHz
Bit depth : 16 bits
Compression mode : Lossy
Stream size : 141 MiB (11%)
Alignment : Aligned on interleaves
Interleave, duration : 42 ms (1.00 video frame)
Interleave, preload duration : 512 ms


Plot:
With the help of three fans, The Muppets must reunite to save

their old theater from a greedy oil tycoon
The Muppets 2011 DVDRip XviD FXG/The Muppets 2011 DVDRip XviD FXG.avi 854.439 MB
The Muppets 2011 DVDRip XviD FXG/Torrent downloaded from Extratorrent.com.txt 43 B
Gathering some info...

Register and log in Isohunt and see no captcha anymore!

4000 symbols left
Hash 19bcd150bce881eacc4912dac88aca0339fd667c

Related torrents for "The Muppets 2011 DVDRip XviD FXG"

Torrent search:

dvdrip 2011